Последние луны (Римас Туминас, Алексей Кузнецов) [2014 г., драма, SATRip] Государственный академический театр им. Евг. Вахтангова


 

[Цитировать]

Последние луны (2 акта) Название театра: Государственный академический театр им. Е. Вахтангова.
Год выпуска: 2014.
Жанр: драма.
Продолжительность: 01:15:00 + 01:20:24 (02:35:24).
Режиссер спектакля: Римас Туминас, заслуженный артист России Алексей Кузнецов, Алексей Шлянин.
Действующие лица и исполнители:
Последние луны
Он - народный артист СССР Василий Лановой,
Она - заслуженная артистка России Елена Сотникова,
Сын - Олег Макаров.
Тихая ночь
Мать - народная артистка России Ирина Купченко,
Cын - заслуженный артист России Сергей Юшкевич,
заслуженная артистка России Инна Алабина, Елена Мельникова, Дарья Пешкова, заслуженная артистка России Нина Нехлопоченко, заслуженная артистка России Агнесса Петерсон, заслуженный артист России Анатолий Меньщиков, заслуженный артист России Евгений Федоров, Римас Туминас.
О спектакле:
Спектакль поставлен по двум одноактным пьесам - итальянца Фурио Бордона "Последние луны" и немца Гарольда Мюллера "Тихая ночь".
Старость не знает национальных границ и географических пределов. Она может быть умиротворенной и счастливой в кругу близких и стать катастрофой, если ты оставлен дорогими тебе людьми.
Итальянская и немецкая история двух пожилых людей пронзительно и горько сыграна замечательными русскими актерами - Ириной Купченко и Василием Лановым.

Дополнительная информация:
Страна: Россия .
Выпущено: © Кинокомпания "ВиргоС", © по заказу Правительства Москвы.
Постановка спектакля: Римас Туминас.
Авторы: Фурио Бордон и Гарольд Мюллер.
Перевод с итальянского: Валерий Николаев.
Перевод с немецкого: Леонард Бухов.
Режиссер спектакля: заслуженный артист России Алексей Кузнецов.
Сценография и костюмы: Мария Митрофанова.
Композитор: Фаустас Латенас.
В спектакле звучит музыка Иоганна-Себастьяна Баха и песня Франца Грубера "Тихая ночь".
Художественный руководитель театра: Римас Туминас.
Режиссер телеверсии: Алексей Шлянин.
Оператор-постановщик: Виталий Токарев.

О спектакле.
Релиз

Качество видео:...SAT
Формат:.................AVI
Видео:..720x400 (1.80:1), 25 fps, XviD MPEG-4 ~1209 kbps avg, 0.17 bit/pixel
Аудио:..44.100 kHz, MPEG Layer 3, 2 ch, ~128.00 kbps avg

Отчет MediaInfo

1-й акт
Общее
Полное имя : Poslednie.luny_Moskovskij.teatr.im.Vahtangova.(2.akta.iz.2).2014.XviD.SATRip.fenixclub\Poslednie.luny_Moskovskij.teatr.im.Vahtangova.2014.1-j.akt.avi
Формат : AVI
Формат/Информация : Audio Video Interleave
Размер файла : 723 Мбайт
Продолжительность : 1 ч. 15 м.
Общий поток : 1348 Кбит/сек
Программа кодирования : VirtualDubModRus 1.5.10.2 (build 2542/release)
Библиотека кодирования : VirtualDub build 32842/release
Видео
Идентификатор : 0
Формат : MPEG-4 Visual
Профиль формата : Advanced Simple@L5
Параметр BVOP формата : 2
Параметр QPel формата : Нет
Параметр GMC формата : Без точки перехода
Параметр матрицы формата : Default (H.263)
Режим смешивания : Сжатый битовый поток
Идентификатор кодека : XVID
Идентификатор кодека/Подсказка : XviD
Продолжительность : 1 ч. 15 м.
Битрейт : 1210 Кбит/сек
Ширина : 720 пикселей
Высота : 400 пикселей
Соотношение сторон : 16:9
Частота кадров : 25,000 кадров/сек
Цветовое пространство : YUV
Субдискретизация насыщенности : 4:2:0
Битовая глубина : 8 бит
Тип развёртки : Прогрессивная
Метод сжатия : С потерями
Бит/(Пиксели*Кадры) : 0.168
Размер потока : 649 Мбайт (90%)
Библиотека кодирования : XviD 73
Аудио
Идентификатор : 1
Формат : MPEG Audio
Версия формата : Version 1
Профиль формата : Layer 3
Режим : Joint stereo
Расширение режима : MS Stereo
Идентификатор кодека : 55
Идентификатор кодека/Подсказка : MP3
Продолжительность : 1 ч. 15 м.
Вид битрейта : Постоянный
Битрейт : 128 Кбит/сек
Каналы : 2 канала
Частота : 44,1 КГц
Метод сжатия : С потерями
Размер потока : 68,7 Мбайт (9%)
Выравнивание : Разделение по промежуткам
Продолжительность промежутка : 40 мс. (1,00 видеокадр)
Время предзагрузки промежутка : 500 мс.
Библиотека кодирования : LAME3.98.2
2-й акт
Общее
Полное имя : Poslednie.luny_Moskovskij.teatr.im.Vahtangova.(2.akta.iz.2).2014.XviD.SATRip.fenixclub\Poslednie.luny_Moskovskij.teatr.im.Vahtangova.2014.2-j.akt.avi
Формат : AVI
Формат/Информация : Audio Video Interleave
Размер файла : 775 Мбайт
Продолжительность : 1 ч. 20 м.
Общий поток : 1348 Кбит/сек
Программа кодирования : VirtualDubModRus 1.5.10.2 (build 2542/release)
Библиотека кодирования : VirtualDub build 32842/release
Видео
Идентификатор : 0
Формат : MPEG-4 Visual
Профиль формата : Advanced Simple@L5
Параметр BVOP формата : 2
Параметр QPel формата : Нет
Параметр GMC формата : Без точки перехода
Параметр матрицы формата : Default (H.263)
Режим смешивания : Сжатый битовый поток
Идентификатор кодека : XVID
Идентификатор кодека/Подсказка : XviD
Продолжительность : 1 ч. 20 м.
Битрейт : 1210 Кбит/сек
Ширина : 720 пикселей
Высота : 400 пикселей
Соотношение сторон : 16:9
Частота кадров : 25,000 кадров/сек
Цветовое пространство : YUV
Субдискретизация насыщенности : 4:2:0
Битовая глубина : 8 бит
Тип развёртки : Прогрессивная
Метод сжатия : С потерями
Бит/(Пиксели*Кадры) : 0.168
Размер потока : 696 Мбайт (90%)
Библиотека кодирования : XviD 73
Аудио
Идентификатор : 1
Формат : MPEG Audio
Версия формата : Version 1
Профиль формата : Layer 3
Режим : Joint stereo
Расширение режима : MS Stereo
Идентификатор кодека : 55
Идентификатор кодека/Подсказка : MP3
Продолжительность : 1 ч. 20 м.
Вид битрейта : Постоянный
Битрейт : 128 Кбит/сек
Каналы : 2 канала
Частота : 44,1 КГц
Метод сжатия : С потерями
Размер потока : 73,6 Мбайт (9%)
Выравнивание : Разделение по промежуткам
Продолжительность промежутка : 40 мс. (1,00 видеокадр)
Время предзагрузки промежутка : 500 мс.
Библиотека кодирования : LAME3.98.2

Скриншоты


Альтернативный хост





Показать сообщения:    

Текущее время: 11-Дек 01:28

Часовой пояс: UTC + 3


Вы не можете начинать темы
Вы не можете отвечать на сообщения
Вы не можете редактировать свои сообщения
Вы не можете удалять свои сообщения
Вы не можете голосовать в опросах
Вы не можете прикреплять файлы к сообщениям
Вы не можете скачивать файлы