[TR24][OF] Frédéric (Frederic) Chopin: Etudes Op.10, Op.25, Nouvelles Etudes Nos 1-3; Robert Schumann: Symphonic Studies, Op.13 (Валентина Лисица / Valentina Lisitsa) - 2014 (Classical, Piano)


Статистика раздачи [Обновить пиров]
Размер:  1.51 GB   |    Зарегистрирован:  8 месяцев 15 дней   |    Скачан:  1 раз

Полного источника не было: 14 дней

 
   
 
 
 

[Цитировать]

Frédéric Chopin · Robert Schumann
Études
Valentina Lisitsa
- Год издания: 2014
Жанр: Classical, Piano
Издатель (лейбл): Decca
Продолжительность: 01:40:02
Наличие сканов: Sleeve, Digital Booklet
- -Valentina Lisitsa (piano)
-
Контейнер: FLAC (*.flac)
Тип рипа: tracks
Разрядность: 24bit / 96kHz
Количество каналов: 2.0
-Треклист-Frédéric Chopin (1810-1849)
12 Etudes, Op.10
01. No.1 in C major (1:48)
02. No.2 in A minor Chromatique (1:21)
03. No.3 in E major Tristesse (4:16)
04. No.4 in C-sharp Minorm (1:47)
05. No.5 in G-Flat major Black Keys (1:38)
06. No.6 in E-Flat minor (3:55)
07. No.7 in C major (1:30)
08. No.8 in F major (2:11)
09. No.9 in F minor (1:55)
10. No.10 in A-Flat major (2:07)
11. No.11 in E-Flat major (3:12)
12. No.12 in C minor Revolutionary (2:49)
12 Etudes, Op.25
13. No.1 in A-Flat major Harp Study (2:18)
14. No.2 in F minor (1:28)
15. No.3 in F major (1:51)
16. No.4 in A minor (1:43)
17. No.5 in E minor (3:26)
18. No.6 in G-sharp minor (2:06)
19. No.7 in C-sharp minor (5:18)
20. No.8 in D-Flat major (1:06)
21. No.9 in G-Flat major Butterfly Wings (0:59)
22. No.10 in B minor (4:40)
23. No.11 in A minor Winter Wind (3:42)
24. No.12 in C minor (2:36)
Robert Schumann (1810-1856)
Symphonic Studies, Op.13
25. Theme (1:22)
26. Etude I (1:03)
27. Appendix Variation I (1:29)
28. Etude II (2:51)
29. Etude III (1:26)
30. Etude IV (1:00)
31. Etude V (1:14)
32. Appendix Variation II (2:06)
33. Appendix Variation III (1:31)
34. Appendix Variation IV (2:52)
35. Appendix Variation V (2:28)
36. Etude VI (0:44)
37. Etude VII (1:05)
38. Etude VIII (2:21)
39. Etude IX (0:36)
40. Etude X (1:11)
41. Etude XI (1:55)
42. Etude XII (5:54)
Frédéric Chopin (1810-1849)
3 Nouvelles Etudes
43. No.1 in F minor (2:40)
44. No.2 in A-Flat major (2:30)
45. No.3 in D-Flat major (2:01)
-

О релизе


Simultaneously virtuosic and soulful, indefatigably resourceful and a fount of tech savvy, Valentina Lisitsa has become the very model of a modern, major pianist. From her earliest, chess-playing days, she has prepared, performed and, in many discreet ways since, perfected the keyboard repertoire: war horses in Liszt’s solo canon, two Rachmaninov concerto cycles, challenging Ives sonatas with violinist Hilary Hahn, as well as her most recent record for Decca, a perfectly paced chase of The Piano music of living British minimalist Michael Nyman. On this latest album titled Études, Lisitsa performs works by two leading composers of the Romantic era, Chopin and Schumann.
Recorded October 28 & 29, 2013 at Potton Hall in Suffolk, UK.

ОтчётыДинамический диапазон

foobar2000 1.2.2 / Dynamic Range Meter 1.1.1
log date: 2015-02-27 12:20:55
--------------------------------------------------------------------------------
Analyzed: Valentina Lisitsa / Études
--------------------------------------------------------------------------------
DR Peak RMS Duration Track
--------------------------------------------------------------------------------
DR11 -9.98 dB -24.43 dB 1:48 ?-12 Etudes, Op.10 No.1 in C major
DR10 -7.73 dB -27.46 dB 1:21 ?-12 Etudes, Op.10 No.2 in A minor Chromatique
DR14 -5.75 dB -27.19 dB 4:16 ?-12 Etudes, Op.10 No.3 in E major Tristesse
DR14 -4.71 dB -21.97 dB 1:47 ?-12 Etudes, Op.10 No.4 in C-sharp Minorm
DR12 -3.66 dB -23.45 dB 1:38 ?-12 Etudes, Op.10 No.5 in G-Flat major Black Keys
DR16 -12.77 dB -34.65 dB 3:55 ?-12 Etudes, Op.10 No.6 in E-Flat minor
DR14 -7.79 dB -25.78 dB 1:30 ?-12 Etudes, Op.10 No.7 in C major
DR12 -8.61 dB -24.65 dB 2:11 ?-12 Etudes, Op.10 No.8 in F major
DR14 -4.74 dB -25.05 dB 1:55 ?-12 Etudes, Op.10 No.9 in F minor
DR12 -7.83 dB -23.98 dB 2:07 ?-12 Etudes, Op.10 No.10 in A-Flat major
DR14 -10.03 dB -30.12 dB 3:12 ?-12 Etudes, Op.10 No.11 in E-Flat major
DR14 -4.53 dB -22.75 dB 2:49 ?-12 Etudes, Op.10 No.12 in C minor Revolutionary
DR12 -9.77 dB -26.84 dB 2:18 ?-12 Etudes, Op.25 No.1 in A-Flat major Harp Study
DR11 -11.18 dB -29.24 dB 1:28 ?-12 Etudes, Op.25 No.2 in F minor
DR12 -6.74 dB -24.48 dB 1:51 ?-12 Etudes, Op.25 No.3 in F major
DR14 -9.40 dB -28.26 dB 1:43 ?-12 Etudes, Op.25 No.4 in A minor
DR14 -6.28 dB -26.32 dB 3:26 ?-12 Etudes, Op.25 No.5 in E minor
DR12 -8.49 dB -26.79 dB 2:06 ?-12 Etudes, Op.25 No.6 in G-sharp minor
DR14 -9.10 dB -30.95 dB 5:18 ?-12 Etudes, Op.25 No.7 in C-sharp minor
DR13 -3.43 dB -22.24 dB 1:06 ?-12 Etudes, Op.25 No.8 in D-Flat major
DR10 -6.65 dB -24.34 dB 0:59 ?-12 Etudes, Op.25 No.9 in G-Flat major Butterfly Wings
DR13 -1.57 dB -21.91 dB 4:40 ?-12 Etudes, Op.25 No.10 in B minor
DR12 -6.06 dB -20.87 dB 3:42 ?-12 Etudes, Op.25 No.11 in A minor Winter Wind
DR11 -4.68 dB -19.50 dB 2:36 ?-12 Etudes, Op.25 No.12 in C minor
DR14 -10.59 dB -31.08 dB 1:22 ?-Symphonic Studies, Op.13 - Theme
DR11 -7.33 dB -23.54 dB 1:03 ?-Symphonic Studies, Op.13 - Etude I
DR10 -7.71 dB -22.80 dB 1:29 ?-Symphonic Studies, Op.13 - Appendix Variation I
DR13 -4.21 dB -22.41 dB 2:51 ?-Symphonic Studies, Op.13 - Etude II
DR12 -7.24 dB -26.52 dB 1:26 ?-Symphonic Studies, Op.13 - Etude III
DR12 -3.93 dB -21.51 dB 1:00 ?-Symphonic Studies, Op.13 - Etude IV
DR12 -7.60 dB -23.99 dB 1:14 ?-Symphonic Studies, Op.13 - Etude V
DR15 -5.10 dB -26.53 dB 2:06 ?-Symphonic Studies, Op.13 - Appendix Variation II
DR12 -5.07 dB -23.27 dB 1:31 ?-Symphonic Studies, Op.13 - Appendix Variation III
DR15 -5.47 dB -27.72 dB 2:52 ?-Symphonic Studies, Op.13 - Appendix Variation IV
DR14 -14.98 dB -34.60 dB 2:28 ?-Symphonic Studies, Op.13 - Appendix Variation V
DR12 -6.21 dB -21.41 dB 0:44 ?-Symphonic Studies, Op.13 - Etude VI
DR13 -3.20 dB -19.35 dB 1:05 ?-Symphonic Studies, Op.13 - Etude VII
DR14 -3.50 dB -24.49 dB 2:21 ?-Symphonic Studies, Op.13 - Etude VIII
DR12 -7.37 dB -24.38 dB 0:36 ?-Symphonic Studies, Op.13 - Etude IX
DR13 -2.35 dB -19.23 dB 1:11 ?-Symphonic Studies, Op.13 - Etude X
DR12 -7.65 dB -27.83 dB 1:55 ?-Symphonic Studies, Op.13 - Etude XI
DR14 -0.51 dB -18.67 dB 5:54 ?-Symphonic Studies, Op.13 - Etude XII
DR13 -11.00 dB -31.05 dB 2:40 ?-3 Nouvelles Etudes No.1 in F minor
DR12 -14.82 dB -33.22 dB 2:30 ?-3 Nouvelles Etudes No.2 in A-Flat major
DR13 -11.59 dB -31.36 dB 2:01 ?-3 Nouvelles Etudes No.3 in D-Flat major
--------------------------------------------------------------------------------
Number of tracks: 45
Official DR value: DR13
Samplerate: 96000 Hz
Channels: 2
Bits per sample: 24
Bitrate: 2047 kbps
Codec: FLAC
================================================================================

Скриншот спектра частот

Доп. информация

При скачивании, если необходимо, переименуйте папку, в которой будет находиться альбомБольшая просьба к скачавшим поддерживать раздачу! Помогайте другим, ведь вам тоже может понадобиться помощь!Не забываем говорить "Спасибо"!Комментарии приветствуются!
[teatrix.ru].t20480.torrent 
Торрент: Зарегистрирован [ 2016-03-19 20:35 ] · CC61C591016FFFBA2DCDF1A8F3A2E9FB0E71EC2F

Скачать .torrent

Скачать

19 KB

Статус: проверено
Скачан: 1 раз
Размер: 1.51 GB
terms.php



Быстрый ответ

Имя:

      
Для отправки сообщений необходимо включить JavaScript
Показать сообщения:    

Текущее время: 04-Дек 00:48

Часовой пояс: UTC + 3


Вы можете начинать темы
Вы можете отвечать на сообщения
Вы не можете редактировать свои сообщения
Вы не можете удалять свои сообщения
Вы не можете голосовать в опросах
Вы не можете прикреплять файлы к сообщениям
Вы можете скачивать файлы