[TR24][OF] Franz (Ferenc) Liszt - Piano Sonata in B minor; Petrarch Sonnets; Dante Sonata (Angela Hewitt) - 2015 (Classical, Piano)


Статистика раздачи [Обновить пиров]
Размер:  580 MB   |    Зарегистрирован:  8 месяцев 15 дней   |    Скачан:  0 раз

Полного источника не было: Никогда

 
   
 
 
 

[Цитировать]

Franz Liszt
Piano Sonata · Petrarch Sonnets · Dante Sonata
Angela Hewitt
- Год издания: 2015
Жанр: Classical, Piano
Издатель (лейбл): Hyperion
Продолжительность: 01:14:36
Наличие сканов: Sleeve, Digital Booklet
- -
Franz Liszt (1811-1886)
Piano Sonata in B minor, S178
01. I. Lento assai (13:21)
02. II. Andante sostenuto (7:53)
03. III. Allegro energico (1:55)
04. IV. Allegro energico (6:17)
05. IV. Andante sostenuto (4:55)
Sonetto 47 del Petrarca (No 4 of Années de pèlerinage, deuxième année – Italie, S161)
06. Sonetto 47 del Petrarca (6:25)
Sonetto 104 del Petrarca (No 5 of Années de pèlerinage, deuxième année – Italie, S161)
07. Sonetto 104 del Petrarca (7:36)
Sonetto 123 del Petrarca (No 6 of Années de pèlerinage, deuxième année – Italie, S161)
08. Sonetto 123 del Petrarca (7:58)
Après une lecture du Dante 'Fantasia quasi Sonata' (No 7 of Années de pèlerinage, deuxième année – Italie, S161)
09. Après une lecture du Dante 'Fantasia quasi Sonata' (18:16)
-Angela Hewitt (piano)
Recorded: 19-22 May 2014 at Jesus-Christus-Kirche, Berlin, Germany

-
Контейнер: FLAC (*.flac)
Тип рипа: tracks
Разрядность: 24bit / 44.1kHz
Количество каналов: 2.0
-О релизе
Angela Hewitt’s notes for this important new album describe a teenager’s moment of revelation when she first came to appreciate the epic masterpiece that is the Liszt Piano Sonata. Here we have a heart-felt recording where this palpable sense of wonder is manifest alongside Hewitt’s enthralling technical facility at the keyboard.
The programme is completed by the second half of Liszt’s dazzling second Année de pèlerinage collection: the three Petrarch Sonnets and the noble Dante Sonata, the latter composed as a fund-raiser for the Bonn Beethoven monument in 1839.

ОтчётыДинамический диапазон

foobar2000 1.2.2 / Dynamic Range Meter 1.1.1
log date: 2015-02-27 14:00:38
--------------------------------------------------------------------------------
Analyzed: Angela Hewitt / Liszt: Piano Sonata; Petrarch Sonnets; Dante Sonata
--------------------------------------------------------------------------------
DR Peak RMS Duration Track
--------------------------------------------------------------------------------
DR14 -0.30 dB -19.58 dB 13:21 ?-Piano Sonata in B minor - I. Lento assai
DR15 -0.63 dB -23.36 dB 7:53 ?-Piano Sonata in B minor - II. Andante sostenuto
DR12 -0.38 dB -18.45 dB 1:55 ?-Piano Sonata in B minor - III. Allegro energico
DR13 -0.30 dB -17.84 dB 6:17 ?-Piano Sonata in B minor - IV. Allegro energico
DR17 -9.43 dB -37.21 dB 4:55 ?-Piano Sonata in B minor - IV. Andante sostenuto
DR14 -2.62 dB -24.07 dB 6:25 ?-Sonetto 47 del Petrarca
DR14 -1.81 dB -23.96 dB 7:36 ?-Sonetto 104 del Petrarca
DR17 -1.93 dB -26.14 dB 7:58 ?-Sonetto 123 del Petrarca
DR14 -0.30 dB -18.67 dB 18:16 ?-Après une lecture du Dante 'Fantasia quasi Sonata'
--------------------------------------------------------------------------------
Number of tracks: 9
Official DR value: DR14
Samplerate: 44100 Hz
Channels: 2
Bits per sample: 24
Bitrate: 1118 kbps
Codec: FLAC
================================================================================

Скриншот спектра частот

Доп. информация

При скачивании, если необходимо, переименуйте папку, в которой будет находиться альбомБольшая просьба к скачавшим поддерживать раздачу! Помогайте другим, ведь вам тоже может понадобиться помощь!Не забываем говорить "Спасибо"!Комментарии приветствуются!
[teatrix.ru].t20481.torrent 
Торрент: Зарегистрирован [ 2016-03-19 20:35 ] · 31AEBC52FF680FFE46F67BD98A079B95D8367BDF

Скачать .torrent

Скачать

13 KB

Статус: проверено
Скачан: 0 раз
Размер: 580 MB
terms.php



Быстрый ответ

Имя:

      
Для отправки сообщений необходимо включить JavaScript
Показать сообщения:    

Текущее время: 04-Дек 06:58

Часовой пояс: UTC + 3


Вы можете начинать темы
Вы можете отвечать на сообщения
Вы не можете редактировать свои сообщения
Вы не можете удалять свои сообщения
Вы не можете голосовать в опросах
Вы не можете прикреплять файлы к сообщениям
Вы можете скачивать файлы