[TR24][OF] П.И. Чайковский - Концерт для фортепиано с оркестром №1; Увертюра "1812 год"/P. Tchaikovsky - Piano Concerto No.1; 1812 Overture (Эмиль Гилельс/Emil Gilels; Chicago Symphony Orchestra, Fritz Reiner) - 1955-1958/2014 (Classical)


Статистика раздачи [Обновить пиров]
Размер:  1.84 GB   |    Зарегистрирован:  8 месяцев 14 дней   |    Скачан:  0 раз

Полного источника не было: Никогда

 
   
 
 
 

[Цитировать]

P. Tchaikovsky
Piano Concerto No. 1 & 1812 Overture
Emil Gilels · Chicago Symphony Orchestra · Fritz Reiner
- Год издания/переиздания диска: 1955-1958/2014
Piano Concerto No. 1 - 1955 (Rec. 1955)
1812 Overture - 1958 (Rec. 1957)
Жанр: Classical, Piano
Издатель (лейбл): High Definition Tape Transfers
Продолжительность: 00:46:35
Наличие сканов: Sleeve, Digital Booklet
- -
Pyotr Il'yich Tchaikovsky (1840-1893)
Piano Concerto No.1 in B-flat minor, Op.23
01. I. Allegro non troppo e molto maestoso - Allegro con spirito (20:24)
02. II. Andantino semplice - Prestissimo (7:09)
03. III. Allegro con fuoco (6:19)
1812 Overture, Op.49
04. 1812 Overture (12:42)

-
Emil Gilels (piano)
Chicago Symphony Orchestra
Fritz Reiner (conductor)

-
Контейнер: FLAC (*.flac)
Тип рипа: tracks
Разрядность: 24bit / 192kHz
Количество каналов: 2.0
-О релизе
Gilels recorded this work several times, and the dierence to the other stereo recording in print is evident instantly. Just play the rst 10 seconds from the Gilels/Maazel recording and then this one: RCA in 1955 captured a cleaner, better, richer sound than EMI engineers 20 years later. So you are instantly captivated by the sound alone; and then follows a performance with tremendous sweep and boldness. Reiner is denitely instrumental in helping this along: he was a far better conductor than Maazel could ever aspire to. In a word: don't worry too much about niggling imperfections. This is a performance for the ages. It will stand as a beacon to the possibilities of transmitting a sense of greatness via recordings that had few equals in the 100 years that we have been making records. I might add, lest you think I'm just carried away by it, that I have been living with this recording (on LP) since about 1960 and had something like 22 rival version in my collection at one time. None of the others conveys that same aura of agnicence.
The presence of Emil Gilels (1916-1985) was always synonymous with remarkable interpretative solvency. Although his approach could be a mite cold, he had an overall concept of the score that went far beyond those of other interpreters. Were you agreed or not with his approach, there remained a bulletproof honesty and mercurial conviction that we have to acknowledge. This is an electrifying performance that is a must have, not only for the performance but for its historical value. Giles had outstanding technique as displayed in some of the more dicult passages in each of the movements. The orchestra gives him the support he needs. The conducting is up to the high standards that Reiner was able to produce. This
version of the First Piano Concerto of Tchaikovsky remains among one of his best achievements ever recorded. Genuine expressiveness, sheer pianism, uid phrasing and exemplary tune are one the major virtues of this performance.
Maestro Fritz Reiner recorded this collection of showstoppers nearly sixty years ago when he was just starting to record with the Chicago Symphony in stereo for RCA. The disc includes some of the most electrifying performances ever of the 1812, Franz Liszt’s Mephisto Waltz, Jaromir Weinberger’s Polka and Fugue from Schwanda, Smetana’s Overture to The Bartered Bride, and undoubtedly the best, most exciting version of Dvorak’s Carnival Overture I’ve ever heard.
Admittedly, however, you may nd it disappoint ing that Reiner attacks the 1812 in a slightly abridged version and sans cannons. This is, however, a musical extravaganza all the way, not a special-eects fest, and Reiner does, indeed, make the most of the music. The nal minutes, especially, are among the most thrilling on record, and the buildup to them will keep you just as riveted to your seat. With playing of the highest order from the Chicago Symphony and an interpretation that maintains the score’s musical integrity as well as its thrills, I think it would please even the composer, who famously disliked his own work

ОтчётыДинамический диапазон

foobar2000 1.2.2 / Dynamic Range Meter 1.1.1
log date: 2015-02-27 16:00:25
--------------------------------------------------------------------------------
Analyzed: Chicago Symphony Orchestra, Fritz Reiner / Tchaikovsky: Piano Concerto No.1, 1812 Overture (1)
Emil Gilels; Chicago Symphony Orchestra, Fritz Reiner / Tchaikovsky: Piano Concerto No.1, 1812 Overture (2-4)
--------------------------------------------------------------------------------
DR Peak RMS Duration Track
--------------------------------------------------------------------------------
DR8 -1.94 dB -15.34 dB 12:42 ?-1812 Overture
DR8 -0.60 dB -14.42 dB 20:24 ?-Piano Concerto No.1 in B-flat minor, Op.23 - I. Allegro non troppo e molto maestoso - Allegro con spirito
DR14 -1.21 dB -23.35 dB 7:09 ?-Piano Concerto No.1 in B-flat minor, Op.23 - II. Andantino semplice - Prestissimo
DR8 -0.46 dB -13.24 dB 6:19 ?-Piano Concerto No.1 in B-flat minor, Op.23 - III. Allegro con fuoco
--------------------------------------------------------------------------------
Number of tracks: 4
Official DR value: DR9
Samplerate: 192000 Hz
Channels: 2
Bits per sample: 24
Bitrate: 5712 kbps
Codec: FLAC
================================================================================

Скриншот спектра частот

Доп. информация

При скачивании, если необходимо, переименуйте папку, в которой будет находиться альбомБольшая просьба к скачавшим поддерживать раздачу! Помогайте другим, ведь вам тоже может понадобиться помощь!Не забываем говорить "Спасибо"!Комментарии приветствуются!
[teatrix.ru].t20482.torrent 
Торрент: Зарегистрирован [ 2016-03-19 20:35 ] · 43C6841671D7E9C641CEEF20D9DDC0A0E9F97B98

Скачать .torrent

Скачать

20 KB

Статус: проверено
Скачан: 0 раз
Размер: 1.84 GB
terms.php



Быстрый ответ

Имя:

      
Для отправки сообщений необходимо включить JavaScript
Показать сообщения:    

Текущее время: 03-Дек 01:16

Часовой пояс: UTC + 3


Вы можете начинать темы
Вы можете отвечать на сообщения
Вы не можете редактировать свои сообщения
Вы не можете удалять свои сообщения
Вы не можете голосовать в опросах
Вы не можете прикреплять файлы к сообщениям
Вы можете скачивать файлы