(Classical) George Benjamin - Written on Skin; Duet for Piano & Orchestra - Purves, Hannigan, Mehta, Jo Loeb, Clayton, Mahler Chamber Orchestra, George Benjamin, Pierre-Laurent Aimard - 2013, FLAC (image+.cue) lossless


 

[Цитировать]

George Benjamin - Written on Skin; Duet for Piano & Orchestra - Purves, Hannigan, Mehta, Jo Loeb, Clayton, Mahler Chamber Orchestra, George Benjamin, Pierre-Laurent Aimard
Жанр: Classical
Страна-производитель диска: UK
Год издания диска: 2013
Издатель (лейбл): Nimbus Records
Номер по каталогу: NI5885-6
Дата записи: 2012
Аудиокодек: FLAC
Тип рипа: image+.cue
Битрейт аудио: lossless
Продолжительность: 1:42:34
Источник: собственный рип
Наличие сканов в содержимом раздачи: да
Треклист:
Written on Skin
Opera in Three Parts
Music by George Benjamin
Text by Martin Crimp
CD1
[1]-[6] Part One
[7]-[10] Part Two
CD2
[1]-[5] Part Three
[6] Duet for Piano & Orchestra
Pierre-Laurent Aimard piano
Исполнители:
The Protector Christopher Purves
Agnès, his wife Barbara Hannigan
Angel 1 / The Boy Bejun Mehta
Angel 2 / Marie Rebecca Jo Loeb
Angel 3 / John Allan Clayton
Mahler Chamber Orchestra
George Benjamin
conductor
Pierre-Laurent Aimard piano

Лог создания рипа: CD1

Exact Audio Copy V1.0 beta 3 from 29. August 2011
EAC extraction logfile from 16. November 2014, 13:45
Soli, Mahler Chamber Orchestra, George Benjamin / Benjamin - Written on Skin - CD1
Used drive : HL-DT-STDVDRAM GU70N Adapter: 0 ID: 0
Read mode : Secure
Utilize accurate stream : Yes
Defeat audio cache : Yes
Make use of C2 pointers : No
Read offset correction : 48
Overread into Lead-In and Lead-Out : No
Fill up missing offset samples with silence : Yes
Delete leading and trailing silent blocks : No
Null samples used in CRC calculations : Yes
Used interface : Native Win32 interface for Win NT & 2000
Used output format : User Defined Encoder
Selected bitrate : 128 kBit/s
Quality : High
Add ID3 tag : No
Command line compressor : C:\Program Files (x86)\Exact Audio Copy\Flac\flac.exe
Additional command line options : -V -8 -T "Date=%year%" -T "Genre=%genre%" %source%
TOC of the extracted CD
Track | Start | Length | Start sector | End sector
---------------------------------------------------------
1 | 0:00.00 | 3:29.70 | 0 | 15744
2 | 3:29.70 | 7:46.42 | 15745 | 50736
3 | 11:16.37 | 2:01.18 | 50737 | 59829
4 | 13:17.55 | 8:21.39 | 59830 | 97443
5 | 21:39.19 | 5:46.03 | 97444 | 123396
6 | 27:25.22 | 8:26.15 | 123397 | 161361
7 | 35:51.37 | 1:17.51 | 161362 | 167187
8 | 37:09.13 | 8:25.03 | 167188 | 205065
9 | 45:34.16 | 8:56.23 | 205066 | 245288
10 | 54:30.39 | 5:26.73 | 245289 | 269811
Range status and errors
Selected range
Filename C:\temp\Benjamin - Written on Skin\CD1\Benjamin - Written on Skin - CD1.wav
Peak level 99.8 %
Extraction speed 2.2 X
Range quality 100.0 %
Test CRC 30704444
Copy CRC 30704444
Copy OK
No errors occurred
AccurateRip summary
Track 1 accurately ripped (confidence 7) [FCE645FB] (AR v2)
Track 2 accurately ripped (confidence 7) [C23EFFF1] (AR v2)
Track 3 accurately ripped (confidence 7) [AA5845DB] (AR v2)
Track 4 accurately ripped (confidence 7) [62EA11AE] (AR v2)
Track 5 accurately ripped (confidence 7) [9A254F1E] (AR v2)
Track 6 accurately ripped (confidence 7) [CA7242EF] (AR v2)
Track 7 accurately ripped (confidence 7) [D2F8F8E2] (AR v2)
Track 8 accurately ripped (confidence 7) [F0388FF6] (AR v2)
Track 9 accurately ripped (confidence 7) [236CB28D] (AR v2)
Track 10 accurately ripped (confidence 7) [0ABEE259] (AR v2)
All tracks accurately ripped
End of status report
==== Log checksum CD2FB413529C95650AB99B16B2E297EC8F1AB95581EB5B1F79EEEA7B41568E85 ====

Лог создания рипа: CD2

Exact Audio Copy V1.0 beta 3 from 29. August 2011
EAC extraction logfile from 16. November 2014, 17:09
Soli, Mahler Chamber Orchestra, George Benjamin / Benjamin - Written on Skin - CD2
Used drive : HL-DT-STDVDRAM GU70N Adapter: 0 ID: 0
Read mode : Secure
Utilize accurate stream : Yes
Defeat audio cache : Yes
Make use of C2 pointers : No
Read offset correction : 48
Overread into Lead-In and Lead-Out : No
Fill up missing offset samples with silence : Yes
Delete leading and trailing silent blocks : No
Null samples used in CRC calculations : Yes
Used interface : Native Win32 interface for Win NT & 2000
Used output format : User Defined Encoder
Selected bitrate : 128 kBit/s
Quality : High
Add ID3 tag : No
Command line compressor : C:\Program Files (x86)\Exact Audio Copy\Flac\flac.exe
Additional command line options : -V -8 -T "Date=%year%" -T "Genre=%genre%" %source%
TOC of the extracted CD
Track | Start | Length | Start sector | End sector
---------------------------------------------------------
1 | 0:00.00 | 4:06.22 | 0 | 18471
2 | 4:06.22 | 6:07.21 | 18472 | 46017
3 | 10:13.43 | 6:47.70 | 46018 | 76612
4 | 17:01.38 | 8:20.33 | 76613 | 114145
5 | 25:21.71 | 5:16.49 | 114146 | 137894
6 | 30:38.45 | 12:05.63 | 137895 | 192332
Range status and errors
Selected range
Filename C:\temp\Benjamin - Written on Skin\CD2\Benjamin - Written on Skin - CD2.wav
Peak level 65.3 %
Extraction speed 2.0 X
Range quality 100.0 %
Test CRC 6BD7678C
Copy CRC 6BD7678C
Copy OK
No errors occurred
AccurateRip summary
Track 1 accurately ripped (confidence 6) [5C2BCB79] (AR v2)
Track 2 accurately ripped (confidence 6) [F669BE1B] (AR v2)
Track 3 accurately ripped (confidence 6) [616C791E] (AR v2)
Track 4 accurately ripped (confidence 6) [94AA20FC] (AR v2)
Track 5 accurately ripped (confidence 6) [0FAD3154] (AR v2)
Track 6 accurately ripped (confidence 6) [08C10F8C] (AR v2)
All tracks accurately ripped
End of status report
==== Log checksum 76F0B573D4C8A55098ED9AA4E7372D636E3D2E89D381F27850D6FEA4EDFED45E ====



Показать сообщения:    

Текущее время: 10-Дек 06:02

Часовой пояс: UTC + 3


Вы не можете начинать темы
Вы не можете отвечать на сообщения
Вы не можете редактировать свои сообщения
Вы не можете удалять свои сообщения
Вы не можете голосовать в опросах
Вы не можете прикреплять файлы к сообщениям
Вы не можете скачивать файлы