(Chamber) Franck - Violin sonata, Szymanowsky - Mythes (Zimerman, Danczowska) - 2006, FLAC (image+.cue) lossless


 

[Цитировать]

Franck - Violin sonata, Szymanowsky - Mythes (Zimerman, Danczowska)
Жанр: Chamber
Страна-производитель диска: E.U.
Год издания диска: 2006
Издатель (лейбл): Deutcsche Grammophon
Дата записи: 1980
Аудиокодек: FLAC
Тип рипа: image+.cue
Битрейт аудио: lossless
Продолжительность: 58:12
Источник: собственный рип
Наличие сканов в содержимом раздачи: нет
Треклист:
Cesar Franck
Sonata For Violin And Piano In A
1. Allegretto Ben Moderato
2. Allegro- Quasi Lento- Tempo 1 (Allegro)
3. Recitativo - Fantasia (Ben Moderato - Largamente)
4. Allegretto Poco Mosso
Carol Szymanowski
Mythes, Trois Poemes, Op.30
5. La Fontaine D'arethuse
6. Narcisse
7. Dryades Et Pan
8. Piesn Roksany
9. Piesn Kurpiowska
Исполнители:
Kaja Danczowska, violin
Krystian Zimerman, piano

Лог создания рипа

Exact Audio Copy V1.0 beta 4 from 7. December 2014
EAC extraction logfile from 27. February 2015, 19:06
Kaja Danczowska (violin) & Krystian Zimerman (piano) / Franck Violin Sonata¡ESzymanowski Mythes
Used drive : ASUS DRW-24B3LT Adapter: 1 ID: 0
Read mode : Secure
Utilize accurate stream : Yes
Defeat audio cache : No
Make use of C2 pointers : No
Read offset correction : 6
Overread into Lead-In and Lead-Out : No
Fill up missing offset samples with silence : Yes
Delete leading and trailing silent blocks : No
Null samples used in CRC calculations : Yes
Used interface : Native Win32 interface for Win NT & 2000
Used output format : User Defined Encoder
Selected bitrate : 768 kBit/s
Quality : High
Add ID3 tag : No
Command line compressor : C:\Program Files (x86)\Exact Audio Copy\FLAC\FLAC.EXE
Additional command line options : -V -8 -T "Date=%year%" -T "Genre=%genre%" %source%
TOC of the extracted CD
Track | Start | Length | Start sector | End sector
---------------------------------------------------------
1 | 0:00.00 | 6:16.00 | 0 | 28199
2 | 6:16.00 | 8:37.00 | 28200 | 66974
3 | 14:53.00 | 7:43.00 | 66975 | 101699
4 | 22:36.00 | 6:18.00 | 101700 | 130049
5 | 28:54.00 | 5:39.00 | 130050 | 155474
6 | 34:33.00 | 6:57.00 | 155475 | 186749
7 | 41:30.00 | 7:21.00 | 186750 | 219824
8 | 48:51.00 | 5:05.00 | 219825 | 242699
9 | 53:56.00 | 4:15.72 | 242700 | 261896
Range status and errors
Selected range
Filename D:\Music\Lossless\Zimerman and Danczowska play Franck and Szymanowski\image.wav
Peak level 97.1 %
Extraction speed 4.8 X
Range quality 99.9 %
Test CRC 71DF6567
Copy CRC 71DF6567
Copy OK
No errors occurred

Содержание индексной карты (.CUE)

REM GENRE Classical
REM DATE 2006
REM DISCID 8C0DA309
REM COMMENT "ExactAudioCopy v1.0b4"
PERFORMER "Kaja Danczowska (violin) & Krystian Zimerman (piano)"
TITLE "Franck Violin Sonata.ESzymanowski Mythes"
FILE "image.flac" WAVE
TRACK 01 AUDIO
TITLE "Cesar Franck Sonate fur violine und klavier A-dur - I. Allegretto moderato"
PERFORMER "Kaja Danczowska (violin) & Krystian Zimerman (piano)"
INDEX 01 00:00:00
TRACK 02 AUDIO
TITLE "Cesar Franck Sonate fur violine und klavier A-dur - II. Allegro"
PERFORMER "Kaja Danczowska (violin) & Krystian Zimerman (piano)"
INDEX 01 06:16:00
TRACK 03 AUDIO
TITLE "Cesar Franck Sonate fur violine und klavier A-dur - III. Recitativo-Fntasia. ..."
PERFORMER "Kaja Danczowska (violin) & Krystian Zimerman (piano)"
INDEX 01 14:53:00
TRACK 04 AUDIO
TITLE "Cesar Franck Sonate fur violine und klavier A-dur - IV. Allegretto poco mosso"
PERFORMER "Kaja Danczowska (violin) & Krystian Zimerman (piano)"
INDEX 01 22:36:00
TRACK 05 AUDIO
TITLE "Karol Szymanowski Mythes op.30 - I. La fontaine d'Ar'ethuse"
PERFORMER "Kaja Danczowska (violin) & Krystian Zimerman (piano)"
INDEX 00 28:48:00
INDEX 01 28:54:00
TRACK 06 AUDIO
TITLE "Karol Szymanowski Mythes op.30 - II. Narcisse"
PERFORMER "Kaja Danczowska (violin) & Krystian Zimerman (piano)"
INDEX 01 34:33:00
TRACK 07 AUDIO
TITLE "Karol Szymanowski Mythes op.30 - III. Dryades et pan"
PERFORMER "Kaja Danczowska (violin) & Krystian Zimerman (piano)"
INDEX 01 41:30:00
TRACK 08 AUDIO
TITLE "Karol Szymanowski.EPiesn Roksany"
PERFORMER "Kaja Danczowska (violin) & Krystian Zimerman (piano)"
INDEX 01 48:51:00
TRACK 09 AUDIO
TITLE "Karol Szymanowski.EPiesn kurpiowska"
PERFORMER "Kaja Danczowska (violin) & Krystian Zimerman (piano)"
INDEX 01 53:56:00

Лог проверки качества

AccurateRip summary
Track 1 accurately ripped (confidence 17) [5C60D051] (AR v2)
Track 2 accurately ripped (confidence 17) [4E97F68E] (AR v2)
Track 3 accurately ripped (confidence 17) [DDDB6601] (AR v2)
Track 4 accurately ripped (confidence 17) [E1E32289] (AR v2)
Track 5 accurately ripped (confidence 17) [2027618B] (AR v2)
Track 6 accurately ripped (confidence 17) [A3BDD329] (AR v2)
Track 7 accurately ripped (confidence 17) [8F419B7F] (AR v2)
Track 8 accurately ripped (confidence 17) [4363DB79] (AR v2)
Track 9 accurately ripped (confidence 17) [E2162FFE] (AR v2)
All tracks accurately ripped
End of status report
---- CUETools DB Plugin V2.1.4
[CTDB TOCID: zxE3K358Qt59.BysDguSZSTdfvw-] found
Submit result: zxE3K358Qt59.BysDguSZSTdfvw- has been confirmed
Track | CTDB Status
1 | (9/9) Accurately ripped
2 | (9/9) Accurately ripped
3 | (9/9) Accurately ripped
4 | (9/9) Accurately ripped
5 | (9/9) Accurately ripped
6 | (9/9) Accurately ripped
7 | (9/9) Accurately ripped
8 | (9/9) Accurately ripped
9 | (9/9) Accurately ripped
==== Log checksum 946378EFBDFC46275CDFAFE92827900352114A71552C1B196E8A23EA36A5CCD7 ====



Показать сообщения:    

Текущее время: 06-Дек 21:00

Часовой пояс: UTC + 3


Вы не можете начинать темы
Вы не можете отвечать на сообщения
Вы не можете редактировать свои сообщения
Вы не можете удалять свои сообщения
Вы не можете голосовать в опросах
Вы не можете прикреплять файлы к сообщениям
Вы не можете скачивать файлы