[TR24][OF] Boris Giltburg: Romantic Sonatas (Сергей Рахманинов / Sergei Rachmaninov, Edvard Grieg, Franz Liszt) - 2013 (Classical, Piano)

DL-List and Torrent activity [Update пиров]
Size:  1.08 GB   |    Registered:  7 months 6 days   |    Completed:  0 times

Seeder not seen: Never



Rachmaninov · Grieg · Liszt
Romantic Sonatas
Boris Giltburg
- Год издания: 2013
Жанр: Classical, Piano
Издатель (лейбл): Orchid Classics
Продолжительность: 01:12:17
Наличие сканов: Sleeve, Digital Booklet- -
Sergei Rachmaninov (1873-1943)
Piano Sonata No.2 in B flat minor, Op.36 (1931 version)
01. I. Allegro agitato (9:07)
02. II. Non allegro (6:56)
03. III. Allegro molto (5:50)
Edvard Grieg (1843-1907)
Piano Sonata in E minor, Op.7
04. I. Allegro moderato (5:27)
05. II. Andante molto (4:36)
06. III. Alla menuetto (2:34)
07. IV. Finale (6:32)
Franz Liszt (1811-1886)
Piano Sonata in B Minor, S178/R21
08. I. Lento assai (12:31)
09. II. Andante sostenuto (7:30)
10. III. Allegro energico (1:50)
11. IV. Recapitulation (6:10)
12. V. Andante sostenuto (3:13)

Boris Giltburg (piano)
Recorded in the Concert Hall, Wyastone Leys, Herefordshire, UK on 1-3 July 2012

Контейнер: FLAC (*.flac)
Тип рипа: tracks
Разрядность: 24bit / 96kHz
Количество каналов: 2.0

О релизе
Shivers of pleasure
Pianist Boris Giltburg – winner of the 2013 Queen Elisabeth Competition – releases his second recording on Orchid Classics, following his acclaimed Prokofiev War Sonatas release of 2012.
“His virtuosity is beyond question, but it is what he does with it that makes such a difference. There is emotional power here, together with apt tonal weight, but there is also a sensitive inwardness that, in all three movements, reveals subtle expressive facets of the sonata that so often whizz by unnoticed.
This performance genuinely makes you hear the music in a new light, just as his gifts of litheness, tenderness and grandeur open up beautifully fresh perspectives in the Grieg. His command of the Liszt language is equally compelling, its broad passionate sweep embracing brooding intimacy and bravura with a rich range of inflection. All in all, a recital not to be missed.” (The Daily Telegraph)
“Giltburg's fingerwork and the even strength of his octaves are things to marvel at but what makes the playing so special is the seriousness of the approach...you may well wonder when you last heard a performance as dignified or subtly poetic. Finely recorded, this is a record for everyone's delectation.” (Gramophone)

ОтчётыДинамический диапазон

foobar2000 1.2.2 / Dynamic Range Meter 1.1.1
log date: 2015-02-27 20:40:38
Analyzed: Boris Giltburg / Rachmaninov, Grieg & Liszt: Romantic Sonatas
DR Peak RMS Duration Track
DR13 -2.04 dB -22.34 dB 9:07 ?-Piano Sonata No.2 in B flat minor, Op.36 - I. Allegro agitato
DR13 -4.04 dB -25.05 dB 6:56 ?-Piano Sonata No.2 in B flat minor, Op.36 - II. Non allegro
DR13 -0.77 dB -19.25 dB 5:50 ?-Piano Sonata No.2 in B flat minor, Op.36 - III. Allegro molto
DR13 -3.50 dB -22.67 dB 5:27 ?-Piano Sonata in E minor, Op.7 - I. Allegro moderato
DR13 -8.61 dB -27.64 dB 4:36 ?-Piano Sonata in E minor, Op.7 - II. Andante molto
DR14 -4.06 dB -23.69 dB 2:34 ?-Piano Sonata in E minor, Op.7 - III. Alla menuetto
DR13 -4.75 dB -22.94 dB 6:32 ?-Piano Sonata in E minor, Op.7 - IV. Finale
DR15 -1.00 dB -21.90 dB 12:31 ?-Piano Sonata in B minor - I. Lento assai
DR14 -5.13 dB -26.64 dB 7:30 ?-Piano Sonata in B minor - II. Andante sostenuto
DR12 -2.62 dB -21.85 dB 1:50 ?-Piano Sonata in B minor - III. Allegro energico
DR12 -1.86 dB -19.88 dB 6:10 ?-Piano Sonata in B minor - IV. Recapitulation
DR14 -15.91 dB -38.75 dB 3:13 ?-Piano Sonata in B minor - V. Andante sostenuto
Number of tracks: 12
Official DR value: DR13
Samplerate: 96000 Hz
Channels: 2
Bits per sample: 24
Bitrate: 1907 kbps
Codec: FLAC

Скриншот спектра частот

Доп. информация

При скачивании, если необходимо, переименуйте папку, в которой будет находиться альбомБольшая просьба к скачавшим поддерживать раздачу! Помогайте другим, ведь вам тоже может понадобиться помощь!Не забываем говорить "Спасибо"!Комментарии приветствуются!
Torrent: Registered [ 2016-03-19 20:35 ] · 7A7903E91A027C0B796EC444D6F4EF0B1AB0469F

Download .torrent


13 KB

Status: checked
Completed: 0 times
Size: 1.08 GB

Quick Reply


Heads necessary to send messages to enable JavaScript
Display posts:    

Current time is: 26-Oct 03:29

All times are UTC + 3

You can post new topics in this forum
You can reply to topics in this forum
You cannot edit your posts in this forum
You cannot delete your posts in this forum
You cannot vote in polls in this forum
You cannot attach files in this forum
You can download files in this forum