Роми Шнайдер – интервью журналу Премьера / Romy Schneider in Premiere Magazine [1975, документальный, кинематограф, IPTVRip-AVC] Original (Fre) + Sub (Rus)


Статистика раздачи [Обновить пиров]
Размер:  73 MB   |    Зарегистрирован:  10 месяцев 4 дня   |    Скачан:  0 раз

Полного источника не было: Никогда

 
   
 
 
 

[Цитировать]

Роми Шнайдер – интервью журналу "Премьера"
Romy Schneider in Première Magazine- Дата/Год выпуска: 1975
Страна: Франция, ФРГ
Жанр: документальный, кинематограф
Продолжительность: 00:06:05
Перевод: Субтитры
Русские субтитры: естьФормат субтитров: softsub (SSA/ASS)
Доп. информация о субтитрах: перевод М_Васильев , инициатор Алексей Проскуряков ака Аleks Punk
Оригинальная аудиодорожка: французский
Режиссер: не указан
Телеканал: Canvas TV
Описание: Интервью Роми Шнайдер на съемочной площадке франко-немецкого фильма "Старое ружьё", где ее партнером выступил Филипп Нуаре. Фильм получил награду "Сезар Сезаров", никогда больше не вручавшуюся.
Доп. информация: Вшитые голландские субтитры. За предоставленный материал благодарность Aleks Punk.

качество: IPTVRip-AVC
формат: MKV
Видео: AVC (H.264), 640x480 (4:3), 25 fps, ~1500 kbps avg, 0.195 bit/pixel
Аудио: AC3, 2 ch, 48 kHz, ~192.00 kbps avg

Пример субтитров

Dialogue: 0,0:00:00.00,0:00:06.53,Default,,0,0,0,,{\pos(331,450)}Роми Шнайдер\Nдля журнала "Премьера" (1975)
Dialogue: 0,0:00:06.73,0:00:09.39,Default,,0,0,0,,{\pos(323,435)}На съемках фильма "Старое ружьё".
Dialogue: 0,0:00:09.59,0:00:14.40,Default,,0,0,0,,{\pos(318,438)}В главных ролях\NФилипп Нуаре и Роми Шнайдер.
Dialogue: 0,0:00:16.87,0:00:19.22,Default,,0,0,0,,{\pos(300,438)}Снимем один дубль.
Dialogue: 0,0:00:20.64,0:00:23.83,Default,,0,0,0,,{\pos(317,440)}Вы садитесь за стол.
Dialogue: 0,0:00:24.03,0:00:25.48,Default,,0,0,0,,{\pos(307,410)}Я сделаю крупный план.
Dialogue: 0,0:00:25.68,0:00:27.29,Default,,0,0,0,,{\pos(307,419)}Ведите себя непринужденно.
Dialogue: 0,0:00:27.49,0:00:28.89,Default,,0,0,0,,{\pos(323,441)}Вы будете на фоне движущихся статистов.
Dialogue: 0,0:00:29.09,0:00:29.84,Default,,0,0,0,,{\pos(325,443)}- Хорошо.
Dialogue: 0,0:00:30.04,0:00:31.65,Default,,0,0,0,,{\pos(301,439)}Вы садитесь за стол.
Dialogue: 0,0:00:34.00,0:00:36.01,Default,,0,0,0,,{\pos(291,438)}Порепетируем эту сцену.
Dialogue: 0,0:00:42.69,0:00:43.67,Default,,0,0,0,,{\pos(302,436)}- Мой друг Жюльен.\N- Добрый вечер.
Dialogue: 0,0:00:45.19,0:00:46.05,Default,,0,0,0,,{\pos(336,440)}- Это Клара.
Dialogue: 0,0:00:46.25,0:00:47.35,Default,,0,0,0,,{\pos(309,439)}- Присаживайтесь.
Dialogue: 0,0:00:47.55,0:00:48.12,Default,,0,0,0,,{\pos(305,440)}- Спасибо.
Dialogue: 0,0:00:50.08,0:00:52.18,Default,,0,0,0,,{\pos(297,439)}- Мне нужно позвонить.
Dialogue: 0,0:00:56.00,0:00:56.95,Default,,0,0,0,,{\pos(295,444)}- Меня мучает жажда.
Dialogue: 0,0:00:57.15,0:00:59.02,Default,,0,0,0,,{\pos(277,441)}- А что вы пьете?
Dialogue: 0,0:00:59.22,0:01:01.82,Default,,0,0,0,,{\pos(325,466)}- Бокал шампанского, пожалуйста.\N- Два бокала, пожалуйста.
Dialogue: 0,0:01:03.46,0:01:05.81,Default,,0,0,0,,{\pos(291,443)}- Чем вы занимаетесь в жизни?

MediaInfo

Общее
Уникальный идентификатор : 206182561053273401417181254529068706155 (0x9B1D511C0D66B818A2B7EBF50696296B)
Полное имя : E:\My Torrents 2\[apreder]Romy_Schneider_in_Premiere_Magazine(1975)IPTVRip.mkv
Формат : Matroska
Версия формата : Version 2
Размер файла : 73,1 Мбайт
Продолжительность : 6 м. 1 с.
Общий поток : 1694 Кбит/сек
Дата кодирования : UTC 2015-02-28 12:42:10
Программа кодирования : mkvmerge v7.6.0 ('Garden of Dreams') 64bit built on Feb 8 2015 13:04:34
Библиотека кодирования : libebml v1.3.1 + libmatroska v1.4.2
Видео
Идентификатор : 1
Формат : AVC
Формат/Информация : Advanced Video Codec
Профиль формата : High@L4.1
Параметр CABAC формата : Да
Параметр ReFrames формата : 16 кадров
Идентификатор кодека : V_MPEG4/ISO/AVC
Продолжительность : 6 м. 1 с.
Битрейт : 1500 Кбит/сек
Ширина : 640 пикселей
Высота : 480 пикселей
Соотношение сторон : 4:3
Режим частоты кадров : Постоянный
Частота кадров : 25,000 кадров/сек
Цветовое пространство : YUV
Субдискретизация насыщенности : 4:2:0
Битовая глубина : 8 бит
Тип развёртки : Прогрессивная
Бит/(Пиксели*Кадры) : 0.195
Размер потока : 63,3 Мбайт (87%)
Библиотека кодирования : x264 core 144 r2525 40bb568
Настройки программы : cabac=1 / ref=16 / deblock=1:-1:-1 / analyse=0x3:0x133 / me=umh / subme=10 / psy=1 / psy_rd=1.00:0.15 / mixed_ref=1 / me_range=24 / chroma_me=1 / trellis=2 / 8x8dct=1 / cqm=0 / deadzone=21,11 / fast_pskip=1 / chroma_qp_offset=-3 / threads=6 / lookahead_threads=1 / sliced_threads=0 / nr=0 / decimate=1 / interlaced=0 / bluray_compat=0 / constrained_intra=0 / bframes=8 / b_pyramid=2 / b_adapt=2 / b_bias=0 / direct=3 / weightb=1 / open_gop=0 / weightp=2 / keyint=250 / keyint_min=25 / scenecut=40 / intra_refresh=0 / rc_lookahead=60 / rc=2pass / mbtree=1 / bitrate=1500 / ratetol=1.0 / qcomp=0.60 / qpmin=0 / qpmax=69 / qpstep=4 / cplxblur=20.0 / qblur=0.5 / vbv_maxrate=62500 / vbv_bufsize=78125 / nal_hrd=none / filler=0 / ip_ratio=1.40 / aq=1:1.00
Default : Да
Forced : Нет
Аудио
Идентификатор : 2
Формат : AC-3
Формат/Информация : Audio Coding 3
Расширение режима : CM (complete main)
Параметр Endianness формата : Big
Идентификатор кодека : A_AC3
Продолжительность : 6 м. 1 с.
Вид битрейта : Постоянный
Битрейт : 192 Кбит/сек
Каналы : 2 канала
Расположение каналов : Front: L R
Частота : 48,0 КГц
Битовая глубина : 16 бит
Метод сжатия : С потерями
Размер потока : 8,28 Мбайт (11%)
Язык : French
Default : Да
Forced : Нет
Текст
Идентификатор : 3
Формат : ASS
Идентификатор кодека : S_TEXT/ASS
Идентификатор кодека/Информация : Advanced Sub Station Alpha
Метод сжатия : Без потерь
Язык : Russian
Default : Да
Forced : Нет

Скриншоты

Резервные скриншоты

-[2'140]
[teatrix.ru].t20489.torrent 
Торрент: Зарегистрирован [ 2016-03-19 20:35 ] · C3FE0BB5131025556738B397627F5D2DD74E59A2

Скачать .torrent

Скачать

12 KB

Статус: проверено
Скачан: 0 раз
Размер: 73 MB
terms.php



Показать сообщения:    

Текущее время: 24-Янв 12:13

Часовой пояс: UTC + 3


Вы не можете начинать темы
Вы не можете отвечать на сообщения
Вы не можете редактировать свои сообщения
Вы не можете удалять свои сообщения
Вы не можете голосовать в опросах
Вы не можете прикреплять файлы к сообщениям
Вы можете скачивать файлы