[TR24][OF] Georg Friedrich Händel (Handel) - Music for Queen Caroline (The King Shall Rejoice, Te Deum, The Ways Of Zion Do Mourn) - Les Arts Florissants, William Christie - 2014 (Classical, Baroque)


Статистика раздачи [Обновить пиров]
Размер:  1.38 GB   |    Зарегистрирован:  8 месяцев 15 дней   |    Скачан:  1 раз

Полного источника не было: 21 день

 
   
 
 
 

[Цитировать]

Georg Friedrich Händel
Music for Queen Caroline
Les Arts Florissants & William Christie
- Год издания: 2014
Жанр: Classical, Baroque
Издатель (лейбл): Les Arts Florissants
Продолжительность: 01:12:16
Наличие сканов: Sleeve, Digital Booklet
- -
Georg Friedrich Händel (1685-1759)
The King Shall Rejoice - Coronation Anthem, HWV 260 (1727)
01. I. The King shall rejoice in thy strength,OLord! [Allegro] (2:41)
02. II. Exceeding glad shall he be of thy salvation [Allegro] (3:10)
03. III. Glory andworship hast thou laid upon him (2:15)
04. IV. Alleluia! Alleluia! [Allegro] (2:38)
Te Deum in D major, “Queen Caroline”, HWV 280 (1714)
05. I. We praise thee,O God [Solo and Chorus] (2:36)
06. II. The glorious Company of the Apostles praise thee [Solo and Chorus] (3:19)
07. III. When thou tookest upom thee [Solo and Chorus] (4:13)
08. IV. Day by day we magnify thee and we worship thy Name [Chorus] (1:03)
09. V. Vouchsafe, O Lord, to keep us this day without sin [Accompagnato] (2:57)
10. VI. O Lord, in thee have I trusted [Chorus] (1:16)
The Ways of Zion Do Mourn - Funeral Anthem for Queen Caroline, HWV 264 (1737)
11. I. Symphony [Largo assai] (2:07)
12. II. The ways of Zion do mourn [Larghetto e staccato] (6:20)
13. III. How are the mighty fall’n! [Chorus] (1:39)
14. IV. She put on righteousness [Chorus] (2:55)
15. V. When the ear heard her [Andante larghetto] (4:07)
16. VI. How are the mighty fall’n! [Adagio] (0:52)
17. VII. She deliver’d the poor that cried, the fatherless [Andante] (7:08)
18. VIII. How are the mighty fall’n! [Adagio] (0:55)
19. IX. The righteous shall be had [Larghetto e staccato] (3:25)
20. X. Their bodies are buried in peace [Grave] (5:39)
21. XI. The people will tell of their wisdom [Grave] (2:05)
22. XII. They shall receive a glorious kingdom [Larghetto] (4:03)
23. XIII. The emerciful goodness of the Lord endureth for ever [Larghetto] (4:52)
-Choir and Orchestra of Les Arts Florissants
William Christie, musical director
Soloists for the Te Deum:
Tim Mead, countertenor
Sean Clayton, tenor
Lisandro Abadie, bass-baritone

-
Контейнер: FLAC (*.flac)
Тип рипа: tracks
Разрядность: 24bit / 96kHz
Количество каналов: 2.0
-О релизе
A powerful
celebration

Queen Caroline was an emblematic female figure of the 18th century: the wife of King George II of England, a woman of great beauty, a champion of science and the arts, Caroline d’Ansbach was also the friend and patroness of Handel. The latter was entrusted with the solemn music composed for the grand ceremonies that marked the reign – be it «The King shall rejoice», given for the King’s coronation, the «Queen Caroline» Te Deum written for her own ascension to the throne, or «The Ways of Zion do mourn» performed at her funeral. This recording brings together, for the first time, three works underlining the strong link between the monarch and his favourite composer. This performance by the complete forces of the choir and orchestra of Les Arts Florissants brings to life these scores which are both flamboyant and brimming over with humanity.
“Christie calibrates his performance perfectly – bringing swift movement to Handel’s rapidly set verses…but allowing plenty of spacious swagger and grandeur in the big choruses supported by trumpets...This is an ideal recording for those of us looking for a change from the enthusiastically full-throated and highly articulated Handel singing we get from many British choirs … fit for a queen.” (International Record Review)

ОтчётыДинамический диапазон

foobar2000 1.2.2 / Dynamic Range Meter 1.1.1
log date: 2015-02-28 18:33:20
--------------------------------------------------------------------------------
Analyzed: William Christie and Les Arts Florissants / Händel: Music for Queen Caroline
--------------------------------------------------------------------------------
DR Peak RMS Duration Track
--------------------------------------------------------------------------------
DR12 -0.30 dB -14.65 dB 2:41 ?-The King shall rejoice, HWV 260 - I. The King shall rejoice in thy strength,OLord! [Allegro]
DR12 -2.98 dB -20.21 dB 3:10 ?-The King shall rejoice, HWV 260 - II. Exceeding glad shall he be of thy salvation [Allegro]
DR11 -0.30 dB -15.78 dB 2:15 ?-The King shall rejoice, HWV 260 - III. Glory andworship hast thou laid upon him
DR10 -0.30 dB -13.74 dB 2:38 ?-The King shall rejoice, HWV 260 - IV. Alleluia! Alleluia! [Allegro]
DR11 -0.30 dB -14.62 dB 2:36 ?-Te Deum in D Major "Queen Caroline", HWV 280 - I. We praise thee,O God [Solo and Chorus]
DR14 -2.16 dB -20.57 dB 3:19 ?-Te Deum in D Major "Queen Caroline", HWV 280 - II. The glorious Company of the Apostles praise thee [Solo and Chorus]
DR13 -4.89 dB -22.15 dB 4:13 ?-Te Deum in D Major "Queen Caroline", HWV 280 - III. When thou tookest upom thee [Solo and Chorus]
DR11 -0.78 dB -16.67 dB 1:03 ?-Te Deum in D Major "Queen Caroline", HWV 280 - IV. Day by day we magnify thee and we worship thy Name [Chorus]
DR11 -6.04 dB -24.14 dB 2:57 ?-Te Deum in D Major "Queen Caroline", HWV 280 - V. Vouchsafe, O Lord, to keep us this day without sin [Accompagnato]
DR11 -0.30 dB -14.88 dB 1:16 ?-Te Deum in D Major "Queen Caroline", HWV 280 - VI. O Lord, in thee have I trusted [Chorus]
DR10 -7.69 dB -22.80 dB 2:07 ?-The Ways of Zion Do Mourn, HWV 264 - I. Symphony [Largo assai]
DR11 -3.22 dB -19.67 dB 6:20 ?-The Ways of Zion Do Mourn, HWV 264 - II. The ways of Zion do mourn [Larghetto e staccato]
DR14 -0.30 dB -17.47 dB 1:39 ?-The Ways of Zion Do Mourn, HWV 264 - III. How are the mighty fall’n! [Chorus]
DR11 -3.49 dB -17.93 dB 2:55 ?-The Ways of Zion Do Mourn, HWV 264 - IV. She put on righteousness [Chorus]
DR13 -4.64 dB -22.06 dB 4:07 ?-The Ways of Zion Do Mourn, HWV 264 - V. When the ear heard her [Andante larghetto]
DR10 -2.77 dB -17.08 dB 0:52 ?-The Ways of Zion Do Mourn, HWV 264 - VI. How are the mighty fall’n! [Adagio]
DR13 -0.76 dB -18.83 dB 7:08 ?-The Ways of Zion Do Mourn, HWV 264 - VII. She deliver’d the poor that cried, the fatherless [Andante]
DR11 -2.34 dB -16.91 dB 0:55 ?-The Ways of Zion Do Mourn, HWV 264 - VIII. How are the mighty fall’n! [Adagio]
DR13 -1.92 dB -18.82 dB 3:25 ?-The Ways of Zion Do Mourn, HWV 264 - IX. The righteous shall be had [Larghetto e staccato]
DR12 -0.30 dB -18.24 dB 5:39 ?-The Ways of Zion Do Mourn, HWV 264 - X. Their bodies are buried in peace [Grave]
DR11 -2.38 dB -16.56 dB 2:05 ?-The Ways of Zion Do Mourn, HWV 264 - XI. The people will tell of their wisdom [Grave]
DR12 -5.48 dB -21.35 dB 4:03 ?-The Ways of Zion Do Mourn, HWV 264 - XII. They shall receive a glorious kingdom [Larghetto]
DR13 -0.71 dB -20.33 dB 4:52 ?-The Ways of Zion Do Mourn, HWV 264 - XIII. The emerciful goodness of the Lord endureth for ever [Larghetto]
--------------------------------------------------------------------------------
Number of tracks: 23
Official DR value: DR12
Samplerate: 96000 Hz
Channels: 2
Bits per sample: 24
Bitrate: 2642 kbps
Codec: FLAC
================================================================================

Скриншот спектра частот

Доп. информация

При скачивании, если необходимо, переименуйте папку, в которой будет находиться альбомБольшая просьба к скачавшим поддерживать раздачу! Помогайте другим, ведь вам тоже может понадобиться помощь!Не забываем говорить "Спасибо"!Комментарии приветствуются!
[teatrix.ru].t20491.torrent 
Торрент: Зарегистрирован [ 2016-03-19 20:35 ] · DAA4DE1D648F05D71FFB2B2E050707F8F92DE97E

Скачать .torrent

Скачать

17 KB

Статус: проверено
Скачан: 1 раз
Размер: 1.38 GB
terms.php



Быстрый ответ

Имя:

      
Для отправки сообщений необходимо включить JavaScript
Показать сообщения:    

Текущее время: 04-Дек 06:54

Часовой пояс: UTC + 3


Вы можете начинать темы
Вы можете отвечать на сообщения
Вы не можете редактировать свои сообщения
Вы не можете удалять свои сообщения
Вы не можете голосовать в опросах
Вы не можете прикреплять файлы к сообщениям
Вы можете скачивать файлы