Женя Белоусов. "Он не любит тебя нисколечко...". (Константин Мурашев) [2015, Биографический фильм, HDRip, XviD, RU]


Статистика раздачи [Обновить пиров]
Размер:  654 MB   |    Зарегистрирован:  8 месяцев 20 дней   |    Скачан:  0 раз

Полного источника не было: Никогда

 
   
 
 
 

[Цитировать]

Женя Белоусов. "Он не любит тебя нисколечко..."
Год выпуска: 2015
Страна: Россия
Жанр: Биографический фильм
Продолжительность: 00:49:45
Перевод: Не требуется
Режиссер: Константин Мурашев
Описание: 10 сентября 2014 года Жене Белоусову исполнилось бы 50 лет. Казалось, о кумире девчонок 90-х известно все. Но мы узнали новые подробности жизни певца.
Например, его первая (гражданская) жена Марта Могилевская рассказала, как познакомила Женю со своей приятельницей Натальей Ветлицкой. После чего у них случился сумасшедший роман, который закончился свадьбой; но брак продлился всего… 10 дней. Марта Могилевская признается, что Ветлицкая жаловалась, мол, она не интересует Женю как женщина. Хотя все друзья и возлюбленные певца в один голос утверждают – певец был мужчиной любвеобильным.
Мы съездили в Курск, родной город Жени, вместе с его братом-двойняшкой Александром. Побывали в школе, где учился певец, в ПТУ, где он получил диплом слесаря-механика, и в ресторане, где началась его певческая карьера.
Еще в фильме - неизвестное интервью певца. Оно было записано всего за полгода до смерти. Таким откровенным Женя Белоусов не был никогда. Все привыкли воспринимать певца как солнечного, компанейского, веселого парня. Но что скрывалось за этим образом? Что на самом деле творилось в его душе? Оказывается, Белоусов всегда боялся одиночества. Поэтому постоянно окружал себя друзьями, коллегами, женщинами… Но под конец жизни он, наоборот, хотел спрятаться ото всех. Ему было чуть за 30, но он уже подводил итоги, будто прожил долгую и трудную жизнь. Белоусов с грустью понимал – не получилось из него ни настоящего музыканта, ни серьезного певца. Даже мужем и отцом стать не получилось. Белоусов считал, что прожил несчастливую жизнь. Так и говорил об этом интервью. "Я тоже хочу счастья, хочу быть счастливым человеком, но у меня не получается. Почему-то моя жизнь состоит из одних сложностей. Хочется от этого избавиться. Главное быть счастливым, а пути к этому я не знаю".
Но значит ли это, что певец на самом деле прожил несчастливую жизнь? Короткую – да, несправедливо короткую, но вряд ли несчастливую. Друзья, жены, поклонницы – все любили его. По-настоящему. А любовь – это самый дорогой дар. Не каждый может зажечь ее в чужом сердце. Женя Белоусов мог.
(С)

В фильме принимают участие

Игорь Матвиенко – композитор, продюсер;
Бари Алибасов – продюсер, музыкант;
Любовь Воропаева – поэтесса, продюсер;
Нона Белоусова – мама Евгения Белоусова;
Марина Белоусова – сестра;
Александр Белоусов - брат, музыкант;
Марта Могилевская – бывшая гражданская жена;
Елена Худик – бывшая жена;
Александр Любимов – тележурналист;
Глеб Матвейчук – певец;
Александр Шаганов – поэт.
-Релиз посвящается девачкам флудилки!)-Автор рипа/записи: Багга
Доп. информация: Рип с - http://teatrix.ru/viewtopic.php?t=4950843
В спасибо тыкать необязательно-Качество: HDRip
Формат видео: AVI
Видео: 704x400 (1.76:1),25 fps, XviD build 50 ~1700 kbps avg, 0.24 bit/pixel
Аудио: 48 kHz, MPEG Layer 3, 2 ch, ~128.00 kbps avg

Отчёт MediaInfo

Общее
Полное имя : D:\Женя Белоусов. Он не любит тебя нисколечко.avi
Формат : AVI
Формат/Информация : Audio Video Interleave
Размер файла : 654 Мбайт
Продолжительность : 49 м.
Общий поток : 1836 Кбит/сек
Программа кодирования : VirtualDubMod 1.5.10.3 | www.virtualdub-fr.org || (build 2550/release)
Библиотека кодирования : VirtualDubMod build 2550/release
Видео
Идентификатор : 0
Формат : MPEG-4 Visual
Профиль формата : Advanced Simple@L5
Параметр BVOP формата : 1
Параметр QPel формата : Нет
Параметр GMC формата : Без точки перехода
Параметр матрицы формата : Default (MPEG)
Идентификатор кодека : XVID
Идентификатор кодека/Подсказка : XviD
Продолжительность : 49 м.
Битрейт : 1700 Кбит/сек
Ширина : 704 пикселя
Высота : 400 пикселей
Соотношение сторон : 16:9
Частота кадров : 25,000 кадров/сек
Цветовое пространство : YUV
Субдискретизация насыщенности : 4:2:0
Битовая глубина : 8 бит
Тип развёртки : Прогрессивная
Метод сжатия : С потерями
Бит/(Пиксели*Кадры) : 0.241
Размер потока : 605 Мбайт (92%)
Библиотека кодирования : XviD 1.2.1 (UTC 2008-12-04)
Аудио
Идентификатор : 1
Формат : MPEG Audio
Версия формата : Version 1
Профиль формата : Layer 3
Идентификатор кодека : 55
Идентификатор кодека/Подсказка : MP3
Продолжительность : 49 м.
Вид битрейта : Постоянный
Битрейт : 128 Кбит/сек
Каналы : 2 канала
Частота : 48,0 КГц
Метод сжатия : С потерями
Размер потока : 45,6 Мбайт (7%)
Выравнивание : Соединение по промежуткам
Продолжительность промежутка : 40 мс. (1,00 видеокадр)
Время предзагрузки промежутка : 504 мс.
Библиотека кодирования : L3.99r
Настройки программы : -m s -V 4 -q 2 -lowpass 17 -b 128

Список мордуленций которым запрещено скачивать мои релизики

Абама, Тягнибок, Ярош, Тимошенко, Микки-маус, Меркель, мужу её, Бандере, Чингиз-Хану, Дракуле, Новодворской, Новодворской еще раз, Борману, Музычко, и третий раз Новодворской...
И тем кто не пошел на конкурсы. Ну и Ахеджаковой. Чо уж. Простите... простите... простите...
[teatrix.ru].t20492.torrent 
Торрент: Зарегистрирован [ 2016-03-19 23:59 ] · E78CF25CDFE377D2D4D352123623AA7D9D38BC54

Скачать .torrent

Скачать

13 KB

Статус: проверено
Скачан: 0 раз
Размер: 654 MB
terms.php



Быстрый ответ

Имя:

      
Для отправки сообщений необходимо включить JavaScript
Показать сообщения:    

Текущее время: 09-Дек 14:41

Часовой пояс: UTC + 3


Вы можете начинать темы
Вы можете отвечать на сообщения
Вы не можете редактировать свои сообщения
Вы не можете удалять свои сообщения
Вы не можете голосовать в опросах
Вы не можете прикреплять файлы к сообщениям
Вы можете скачивать файлы