Оркестр со свалки / Scrapheap orchestra (Пол Бернейс / Paul Bernays) [2011, документальный, музыка, DVB-AVC]


Статистика раздачи [Обновить пиров]
Размер:  1.57 GB   |    Зарегистрирован:  8 месяцев 16 дней   |    Скачан:  0 раз

Полного источника не было: Никогда

 
   
 
 
 

[Цитировать]

Оркестр со свалки / Scrapheap orchestra
Год выпуска: 2011
Страна: UK
Жанр: документальный, музыка
Продолжительность: 01:20:04
Перевод: Профессиональный (двухголосый закадровый)
Доп. инфо о переводе: тв Культура
Режиссер: Пол Бернейс / Paul Bernays
Описание: Могут ли профессиональные музыканты извлекать красивые звуки из предметов, далеких от музыки? Например, из мусора? Новый документальный фильм BBC дает ответ на этот вопрос. Впервые в истории целый оркестр из 44 инструментов будет создан только из металлолома и макулатуры. Дирижер Чарльз Хэзлвуд призвал группу ведущих производителей музыкальных инструментов Великобритании превратить мусор, сломанную мебель и бытовые отходы в культурный феномен. В процессе создания инструментов мы углубимся в их историю, узнаем, почему различные инструменты таковы, как они есть, почему некоторые не изменились в течение сотен лет, а некоторые совсем не похожи на своих предшественников. Концертный оркестр BBC - коллектив виртуозов - поставит свою репутацию на кон, исполнив на "инструментах со свалки" Увертюру "1812 год" Чайковского в Альберт-Холле.
Сэмпл: http://sendfile.su/1090992
Доп. информация:
Данное видео представляет собой прямую запись вещания мультиплекса РТРС-1 в стандарте DVB-T2. Монтаж программой VideoReDo TVSuite H.264 v4.21.6.674, ремукс MKVMerge
Если вы испытываете какие-либо проблемы с его просмотром (включая "эффект расчески" или низкое качество видео в сравнении со скриншотами), то можете использовать портативную версию VLC плеера как наиболее универсальное средство их решения.
Качество видео: DVB-AVC
Формат/Контейнер: MKV
Видео кодек: H.264
Аудио кодек: MP2
Видео поток: 720x576 (785:576) 50fps ~2500kbps
Аудио поток: 48000Hz 2ch mono 192kbps

MediaInfo

Format                         : Matroska
Format version : Version 4 / Version 2
File size : 1.57 GiB
Duration : 1h 20mn
Overall bit rate : 2 806 Kbps
Encoded date : UTC 2015-02-28 22:37:39
Writing application : mkvmerge v6.1.0 ('Old Devil') built on Mar 4 2013 09:10:42
Writing library : libebml v1.3.0 + libmatroska v1.4.0
Video
ID : 1
Format : AVC
Format/Info : Advanced Video Codec
Format profile : Main@L3.0
Format settings, CABAC : Yes
Format settings, ReFrames : 3 frames
Codec ID : V_MPEG4/ISO/AVC
Duration : 1h 20mn
Bit rate : 2 558 Kbps
Width : 720 pixels
Height : 576 pixels
Display aspect ratio : 4:3
Original display aspect ratio : 4:3
Frame rate mode : Constant
Frame rate : 25.000 fps
Standard : Component
Color space : YUV
Chroma subsampling : 4:2:0
Bit depth : 8 bits
Scan type : Interlaced
Bits/(Pixel*Frame) : 0.247
Stream size : 1.43 GiB (91%)
Default : Yes
Forced : No
Audio
ID : 2
Format : MPEG Audio
Format version : Version 1
Format profile : Layer 2
Codec ID : A_MPEG/L2
Codec ID/Hint : MP2
Duration : 1h 20mn
Bit rate mode : Constant
Bit rate : 192 Kbps
Channel(s) : 2 channels
Sampling rate : 48.0 KHz
Compression mode : Lossy
Stream size : 110 MiB (7%)
Language : English
Default : Yes
Forced : No

Скриншоты

Скриншоты с учетом анаморфирования

[teatrix.ru].t20493.torrent 
Торрент: Зарегистрирован [ 2016-03-19 23:59 ] · 90C81BFC6E35778666906D6730B70F50B49DC480

Скачать .torrent

Скачать

16 KB

Статус: проверено
Скачан: 0 раз
Размер: 1.57 GB
terms.php



Быстрый ответ

Имя:

      
Для отправки сообщений необходимо включить JavaScript
Показать сообщения:    

Текущее время: 05-Дек 21:39

Часовой пояс: UTC + 3


Вы можете начинать темы
Вы можете отвечать на сообщения
Вы не можете редактировать свои сообщения
Вы не можете удалять свои сообщения
Вы не можете голосовать в опросах
Вы не можете прикреплять файлы к сообщениям
Вы можете скачивать файлы