(Opera) Massenet - Don Quichotte (Борис Христов / Christoff, Berganza, Badioli, Rovero - Milan RAI Orchestra & Chorus, Simonetto) - 2000, APE (image+.cue) lossless


 

[Цитировать]

Jules Massenet - Don Quichotte
Жанр: Opera
Страна-производитель диска: USA
Год издания диска: 2000
Издатель (лейбл): Opera D'Oro
Номер по каталогу: OPD-1240
Дата записи: 1958
Аудиокодек: APE
Тип рипа: image+.cue
Битрейт аудио: lossless
Продолжительность: 49'16+58'24
Источник: собственный рип
Наличие сканов в содержимом раздачи: да
Треклист:

CD1

1. Act 1: "Alza! Alza! Evviva!"
2. Act 1: "Alza! A vent'anni d'età"
3. Act 1: "Allegrezza! Viva Don Chisciotte"
4. Act 1: "E' mirabil vedere come sono noto qui!"
5. Act 1: "O Dulcinea!"
6. Act 1: "Quando apariscon gli astri"
7. Act 1: "Ah! da voi veniva la dolce canzone?"
8. Act 1: "Voi siete, mio Signor, comprommettente assai"
9. Act 2: "E' verso il tuo amore"
10. Act 2: "Si! Ciò che mi piace"
11. Act 2: "Non vedi!... Che?..."
12. Act 2: "First Interlude"

CD2

1. Act 3: "Proprio qui è la strada"
2. Act 3: "Ecco certamente un uomo"
3. Act 3: "Signor, mi salva l'alma"
4. Act 3: "Il cavalier errante"
5. Act 4: "Allor, cattiva"
6. Act 4: "Quando l'amore se ne fuggi"
7. Act 4: "Ah! Rivolto ad altri pensieri"
8. Act 4: "Annuncio il grande Chisciotte"
9. Act 4: "Gia vien l'aurora foriera"
10. Act 4: "Compagna mi siate"
11. Act 4: "Alfin ritorni qua!"
12. Act 4: "Ah! vio state compiendo"
13. Act 4: Second Interlude
14. Act 5: "O Maestro, mio buon"
15. Act 5: "Si, ho seminato sempre il ben!"
Исполнители:
Jules Massenet - Don Quichotte
Comic opera in 5 acts
Libretto: Henri Cain, based on the 1904 play by Jacques Le Lorrain
Don Quichotte - Boris Christoff
Dulcinea - Teresa Berganza
Sancho Panza - Carlo Badioli
Pedro - Ornella Rovero
Garcia - Pina Malgarini
Rodrigo - Alfredo Nobile
Milan RAI Chorus
Milan RAI Orchestra
Alfredo Simonetto

Лог создания рипа

CD1

Exact Audio Copy V1.0 beta 3 from 29. August 2011
EAC extraction logfile from 1. March 2015, 12:12
Massenet / Don Quichotte, Simonette CD1
Used drive : TSSTcorpCDDVDW SE-208AB Adapter: 1 ID: 0
Read mode : Secure
Utilize accurate stream : Yes
Defeat audio cache : Yes
Make use of C2 pointers : No
Read offset correction : 6
Overread into Lead-In and Lead-Out : No
Fill up missing offset samples with silence : Yes
Delete leading and trailing silent blocks : No
Null samples used in CRC calculations : Yes
Used interface : Native Win32 interface for Win NT & 2000
Used output format : Monkey's Audio Lossless Encoder
Selected bitrate : High Lossless Compression
Quality : High
Add ID3 tag : Yes
Command line compressor : C:\Program Files (x86)\Exact Audio Copy\MAC\MAC.exe
TOC of the extracted CD
Track | Start | Length | Start sector | End sector
---------------------------------------------------------
1 | 0:00.00 | 5:22.25 | 0 | 24174
2 | 5:22.25 | 5:38.14 | 24175 | 49538
3 | 11:00.39 | 1:36.64 | 49539 | 56802
4 | 12:37.28 | 3:45.07 | 56803 | 73684
5 | 16:22.35 | 1:46.43 | 73685 | 81677
6 | 18:09.03 | 4:52.00 | 81678 | 103577
7 | 23:01.03 | 1:54.26 | 103578 | 112153
8 | 24:55.29 | 7:10.71 | 112154 | 144474
9 | 32:06.25 | 5:38.38 | 144475 | 169862
10 | 37:44.63 | 3:40.73 | 169863 | 186435
11 | 41:25.61 | 4:03.20 | 186436 | 204680
12 | 45:29.06 | 3:47.08 | 204681 | 221713
Range status and errors
Selected range
Filename D:\EAC\Massenet - Don Quichotte, Simonette CD1.wav
Peak level 98.0 %
Extraction speed 4.4 X
Range quality 100.0 %
Test CRC 006B6306
Copy CRC 006B6306
Copy OK
No errors occurred
AccurateRip summary
Track 1 accurately ripped (confidence 2) [57C5D679] (AR v1)
Track 2 accurately ripped (confidence 2) [B7D7821A] (AR v1)
Track 3 accurately ripped (confidence 2) [32C7BE01] (AR v1)
Track 4 accurately ripped (confidence 2) [4FD79700] (AR v1)
Track 5 accurately ripped (confidence 2) [4AE30CCF] (AR v1)
Track 6 accurately ripped (confidence 2) [B75CBE4E] (AR v1)
Track 7 accurately ripped (confidence 2) [A65E258B] (AR v1)
Track 8 accurately ripped (confidence 2) [65EA999D] (AR v1)
Track 9 accurately ripped (confidence 2) [1228DA23] (AR v1)
Track 10 accurately ripped (confidence 2) [D5031CBB] (AR v1)
Track 11 accurately ripped (confidence 2) [ED951257] (AR v1)
Track 12 accurately ripped (confidence 2) [5C6513D6] (AR v1)
All tracks accurately ripped
End of status report
---- CUETools DB Plugin V2.1.3
[CTDB TOCID: nEYO_5.KWGdCtLUZbMJKIc1PosY-] found, Submit result: nEYO_5.KWGdCtLUZbMJKIc1PosY- has been confirmed
[bbbc02dd] (1/1) Accurately ripped
==== Log checksum E684DE14B1967BDD61DB51CC136DCBAAA89FD2C30DDC80610811B4379FCCFDF2 ====

CD2

Exact Audio Copy V1.0 beta 3 from 29. August 2011
EAC extraction logfile from 1. March 2015, 12:42
Massenet / Don Quichotte, Simonette CD2
Used drive : TSSTcorpCDDVDW SE-208AB Adapter: 1 ID: 0
Read mode : Secure
Utilize accurate stream : Yes
Defeat audio cache : Yes
Make use of C2 pointers : No
Read offset correction : 6
Overread into Lead-In and Lead-Out : No
Fill up missing offset samples with silence : Yes
Delete leading and trailing silent blocks : No
Null samples used in CRC calculations : Yes
Used interface : Native Win32 interface for Win NT & 2000
Used output format : Monkey's Audio Lossless Encoder
Selected bitrate : High Lossless Compression
Quality : High
Add ID3 tag : Yes
Command line compressor : C:\Program Files (x86)\Exact Audio Copy\MAC\MAC.exe
TOC of the extracted CD
Track | Start | Length | Start sector | End sector
---------------------------------------------------------
1 | 0:00.00 | 6:29.48 | 0 | 29222
2 | 6:29.48 | 1:51.30 | 29223 | 37577
3 | 8:21.03 | 2:02.43 | 37578 | 46770
4 | 10:23.46 | 5:20.43 | 46771 | 70813
5 | 15:44.14 | 2:31.12 | 70814 | 82150
6 | 18:15.26 | 2:55.01 | 82151 | 95276
7 | 21:10.27 | 4:51.55 | 95277 | 117156
8 | 26:02.07 | 3:59.02 | 117157 | 135083
9 | 30:01.09 | 2:54.33 | 135084 | 148166
10 | 32:55.42 | 7:42.09 | 148167 | 182825
11 | 40:37.51 | 1:59.39 | 182826 | 191789
12 | 42:37.15 | 2:44.00 | 191790 | 204089
13 | 45:21.15 | 2:44.21 | 204090 | 216410
14 | 48:05.36 | 5:40.02 | 216411 | 241912
15 | 53:45.38 | 4:39.19 | 241913 | 262856
Range status and errors
Selected range
Filename D:\EAC\Massenet - Don Quichotte, Simonette CD2.wav
Peak level 95.5 %
Extraction speed 4.6 X
Range quality 100.0 %
Test CRC A5ED89E9
Copy CRC A5ED89E9
Copy OK
No errors occurred
AccurateRip summary
Track 1 accurately ripped (confidence 2) [48D70E23] (AR v1)
Track 2 accurately ripped (confidence 2) [E1034F51] (AR v1)
Track 3 accurately ripped (confidence 2) [C67DB111] (AR v1)
Track 4 accurately ripped (confidence 2) [54A7017E] (AR v1)
Track 5 accurately ripped (confidence 2) [EC6C31E1] (AR v1)
Track 6 accurately ripped (confidence 2) [B6B34636] (AR v1)
Track 7 accurately ripped (confidence 2) [7C2379E3] (AR v1)
Track 8 accurately ripped (confidence 2) [1E0D00C0] (AR v1)
Track 9 accurately ripped (confidence 2) [1A242F53] (AR v1)
Track 10 accurately ripped (confidence 2) [11E01228] (AR v1)
Track 11 accurately ripped (confidence 2) [36326AB8] (AR v1)
Track 12 accurately ripped (confidence 2) [EB1ABF6E] (AR v1)
Track 13 accurately ripped (confidence 2) [A455FC8A] (AR v1)
Track 14 accurately ripped (confidence 2) [A12C245E] (AR v1)
Track 15 accurately ripped (confidence 2) [FE6D551D] (AR v1)
All tracks accurately ripped
End of status report
---- CUETools DB Plugin V2.1.3
[CTDB TOCID: OQ8xp45F_L5LyfG5Un3RPiBq8UU-] found, Submit result: OQ8xp45F_L5LyfG5Un3RPiBq8UU- has been confirmed
[ea4be319] (1/1) Accurately ripped
==== Log checksum FF10758DCC7F6851F999B770BB6D8BD68C7ED2A5EABE0FC62B3AD149233BE5FB ====

Содержание индексной карты (.CUE)

CD1

REM GENRE Opera
REM DATE 1958
REM DISCID B80B8C0C
REM COMMENT "ExactAudioCopy v1.0b3"
PERFORMER "Massenet"
TITLE "Don Quichotte, Simonette CD1"
FILE "Massenet - Don Quichotte, Simonette CD1.ape" WAVE
TRACK 01 AUDIO
TITLE "Act One - Alza! Alza! Evviva!"
PERFORMER "Massenet"
INDEX 01 00:00:00
TRACK 02 AUDIO
TITLE "Alza! A vent'anni d'età"
PERFORMER "Massenet"
INDEX 01 05:22:25
TRACK 03 AUDIO
TITLE "Allégrezza! Viva Don Chisciotte"
PERFORMER "Massenet"
INDEX 01 11:00:39
TRACK 04 AUDIO
TITLE "E' mirabil vedere come sono noto qui!"
PERFORMER "Massenet"
INDEX 01 12:37:28
TRACK 05 AUDIO
TITLE "O Dulcinea!"
PERFORMER "Massenet"
INDEX 01 16:22:35
TRACK 06 AUDIO
TITLE "Quando apariscon gli astri"
PERFORMER "Massenet"
FLAGS DCP
INDEX 01 18:09:03
TRACK 07 AUDIO
TITLE "Ah! da voi veniva la dolce canzone¿"
PERFORMER "Massenet"
FLAGS DCP
INDEX 01 23:01:03
TRACK 08 AUDIO
TITLE "Voi siete, mio Signor, comprommettente assai"
PERFORMER "Massenet"
INDEX 01 24:55:29
TRACK 09 AUDIO
TITLE "Act Two - E' verso il tuo amore"
PERFORMER "Massenet"
INDEX 01 32:06:25
TRACK 10 AUDIO
TITLE "Si! Ciò ehe mi piace"
PERFORMER "Massenet"
INDEX 01 37:44:63
TRACK 11 AUDIO
TITLE "Non vedi!...Che¿.."
PERFORMER "Massenet"
INDEX 01 41:25:61
TRACK 12 AUDIO
TITLE "First Interlude"
PERFORMER "Massenet"
INDEX 01 45:29:06

CD2

REM GENRE Opera
REM DATE 1958
REM DISCID E40DB00F
REM COMMENT "ExactAudioCopy v1.0b3"
PERFORMER "Massenet"
TITLE "Don Quichotte, Simonette CD2"
FILE "Massenet - Don Quichotte, Simonette CD2.ape" WAVE
TRACK 01 AUDIO
TITLE "Act Three - Proprio qui è la strada"
PERFORMER "Massenet"
INDEX 01 00:00:00
TRACK 02 AUDIO
TITLE "Ecco certamente un uomo"
PERFORMER "Massenet"
INDEX 01 06:29:48
TRACK 03 AUDIO
TITLE "Signor, mi salva l'alma"
PERFORMER "Massenet"
INDEX 01 08:21:03
TRACK 04 AUDIO
TITLE "Il cavalier errante"
PERFORMER "Massenet"
INDEX 01 10:23:46
TRACK 05 AUDIO
TITLE "Act Four - Allor, cattiva"
PERFORMER "Massenet"
INDEX 01 15:44:14
TRACK 06 AUDIO
TITLE "Quando l'amore se ne fuggi"
PERFORMER "Massenet"
INDEX 01 18:15:26
TRACK 07 AUDIO
TITLE "Ah! Rivolto ad altri pensieri"
PERFORMER "Massenet"
INDEX 01 21:10:27
TRACK 08 AUDIO
TITLE "Annuncio il grande Chisciotte"
PERFORMER "Massenet"
INDEX 01 26:02:07
TRACK 09 AUDIO
TITLE "Gia vien l'aurora foriera"
PERFORMER "Massenet"
INDEX 01 30:01:09
TRACK 10 AUDIO
TITLE "Compagna mi siate"
PERFORMER "Massenet"
INDEX 01 32:55:42
TRACK 11 AUDIO
TITLE "Alfin ritorni qua!"
PERFORMER "Massenet"
INDEX 01 40:37:51
TRACK 12 AUDIO
TITLE "Ah! voi state compiendo"
PERFORMER "Massenet"
INDEX 01 42:37:15
TRACK 13 AUDIO
TITLE "Second Interlude"
PERFORMER "Massenet"
INDEX 01 45:21:15
TRACK 14 AUDIO
TITLE "Act Five - O Maestro, mio buon"
PERFORMER "Massenet"
INDEX 01 48:05:36
TRACK 15 AUDIO
TITLE "Si, ho seminato sempre il ben!"
PERFORMER "Massenet"
INDEX 01 53:45:38
Доп. информация:
Don Quichotte hasn't found its way into the repertoire with Massenet's most popular operas, but it's musically one of his most attractive works.
It's unabashedly melodic and evokes a strong sense of locale, which Massenet was so consistently skillful at creating.
It's admittedly foolhardy to try to reduce Cervantes' sprawling chronicle into an evening's entertainment, but if the listener can put the source out of mind, it's possible to admire the economy of the libretto by Henri Cain, based on the popular and successful 1904 play by Jacques Le Lorrain, which wisely limits itself to one incident with Dulcinea, and the Don's subsequent death.
Massenet called his opera a "heroic comedy," an apt description; he is able to maintain a tone that acknowledges both the humor of the situation and the nobility of the Don's character.
The Don is on-stage for virtually the entire opera; the part requires a singer of exceptional charisma to make the eccentric character credible, and Boris Christoff ideally fills the role.
He brings a dark, Russian sound to the part, and the otherness of his voice and his innate gravity makes him a perfect foil to the superficiality of the society in which the Don is situated.
There's a venerable tradition of Russian basses taking the role, beginning with Chaliapin (see also http://teatrix.ru/viewtopic.php?t=4460280 ), who sang at the 1910 premiere.
Christoff fully inhabits the part, making it completely believable that the Don can charm both the leader of the bandits and Dulcinea with his innocence and sincerity, and his death scene is hugely moving.
Christoff is surrounded by an exemplary cast.
Carlo Badioli makes a bumptious but devoted Sancho and he sings with richness and power.
Teresa Berganza's Dulcinea is warm, delicate but voluptuous, and sympathetically drawn.
The smaller parts are taken by skillful singers who are also dramatically effective.
Orchestra Sinfonico e Coro di Milano della RAI perform beautifully, with energy and tenderness, under Alfredo Simonetto.



Показать сообщения:    

Текущее время: 03-Дек 18:42

Часовой пояс: UTC + 3


Вы не можете начинать темы
Вы не можете отвечать на сообщения
Вы не можете редактировать свои сообщения
Вы не можете удалять свои сообщения
Вы не можете голосовать в опросах
Вы не можете прикреплять файлы к сообщениям
Вы не можете скачивать файлы