(Baroque Opera) Telemann - Don Quichotte auf der Hochzeit des Comacho (Nolte, Schopper, Stapf, Bach - Vokalensemble der Akademie fur Alte Musik Bremen / La Stagione, Schneider) - 1993, APE (image+.cue) lossless


 

[Цитировать]

Georg Philipp Telemann - Don Quichotte auf der Hochzeit des Comacho
Жанр: Baroque Opera
Страна-производитель диска: Germany
Год издания диска: 1993
Издатель (лейбл): CPO
Номер по каталогу: 999 210-2
Дата записи: 1993
Аудиокодек: APE
Тип рипа: image+.cue
Битрейт аудио: lossless
Продолжительность: 58'41
Источник: собственный рип
Наличие сканов в содержимом раздачи: да
Треклист:
1. "Ein wahrer Held eilt schon ins Feld"
2. "Vortrefflich, Herr!"
3. "Mich deucht, ich sehe noch die furchterliche Decke"
4. "So kannst du denn Prellung nicht verschmerzen"
5. "Kleinmutiger, hor auf zu klagen"
6. "Bestrebst Du Dich also, dem Beispiel nachzuahmen"
7. "Hat mich der grosse Menschenfresser"
8. "Sieh, Sancho, sieh! Hier gibt's ein neues Abenteuer"
9. "Die schonste Schaferin begluckt den eichsten Hirten dieser Flur"
10. "Herr! Hab ich's nicht gesagt?"
11. "Beim Amadis, beim Ritter von der Sonne!"
12. "Was sagt mein Herr?"
13. "Mein Esel ist das beste Tier"
14. "So sehr nun dieser Tag die Flur erfreut"
15. "Kein Schlaf besucht die starren Augenlider"
16. "Er dauert mich!"
17. "Die schonste Schaferin"
18. "Mich dunkt, es steigt ein Dampf von Wohlgruchen"
19. "Wenn ich die Trommel ruhren horen"
20. "Dort kommt die Braut"
21. "Dich, Schafer, dessen Gluck die Walder widerhallen"
22. "Geliebter Freundin, hore"
23. "Schau her, Quiteria!"
24. "Nun bist Du mein"
25. "O List!"
26. "Behalte nun dein Gold"
27. "Nur nicht zu stolz"
28. "Die Klugheit ist vom gunstigen Geschicke das kostbarste Geschenk"
Исполнители:
Georg Philipp Telemann - Don Quichotte auf der Hochzeit des Comacho
Serenata / Comic Opera
Libretto: Daniel Schiebeier
Don Quichotte - Raimund Nolle, Bass
Sancho Pansa - Michael Schopper, Bass
Pedrillo - Silke Stapf, Soprano
Grisostomo - Mechthild Bach, Soprano
Quiteria - Heike Hallaschka, Soprano
Comacho - Annette Kohler, Alto
Basilio - Karl-Heinz Brandt, Tenor
Vokalensemble der Akademie fur Alte Musik Bremen
La Stagione
Michael Schneider

Лог создания рипа

Exact Audio Copy V1.0 beta 3 from 29. August 2011
EAC extraction logfile from 23. February 2015, 18:24
Telemann / Don Quichotte auf der Hochzeit des Comancho, Schneider
Used drive : TSSTcorpCDDVDW SE-208AB Adapter: 1 ID: 0
Read mode : Secure
Utilize accurate stream : Yes
Defeat audio cache : Yes
Make use of C2 pointers : No
Read offset correction : 6
Overread into Lead-In and Lead-Out : No
Fill up missing offset samples with silence : Yes
Delete leading and trailing silent blocks : No
Null samples used in CRC calculations : Yes
Used interface : Native Win32 interface for Win NT & 2000
Used output format : Monkey's Audio Lossless Encoder
Selected bitrate : High Lossless Compression
Quality : High
Add ID3 tag : Yes
Command line compressor : C:\Program Files (x86)\Exact Audio Copy\MAC\MAC.exe
TOC of the extracted CD
Track | Start | Length | Start sector | End sector
---------------------------------------------------------
1 | 0:00.00 | 3:28.12 | 0 | 15611
2 | 3:28.12 | 1:26.43 | 15612 | 22104
3 | 4:54.55 | 3:52.00 | 22105 | 39504
4 | 8:46.55 | 1:10.27 | 39505 | 44781
5 | 9:57.07 | 3:23.20 | 44782 | 60026
6 | 13:20.27 | 1:21.03 | 60027 | 66104
7 | 14:41.30 | 3:26.67 | 66105 | 81621
8 | 18:08.22 | 0:47.58 | 81622 | 85204
9 | 18:56.05 | 3:32.25 | 85205 | 101129
10 | 22:28.30 | 1:38.67 | 101130 | 108546
11 | 24:07.22 | 2:50.20 | 108547 | 121316
12 | 26:57.42 | 1:43.10 | 121317 | 129051
13 | 28:40.52 | 2:46.05 | 129052 | 141506
14 | 31:26.57 | 1:17.55 | 141507 | 147336
15 | 32:44.37 | 4:18.63 | 147337 | 166749
16 | 37:03.25 | 1:30.65 | 166750 | 173564
17 | 38:34.15 | 3:30.20 | 173565 | 189334
18 | 42:04.35 | 0:47.50 | 189335 | 192909
19 | 42:52.10 | 3:17.52 | 192910 | 207736
20 | 46:09.62 | 1:07.73 | 207737 | 212834
21 | 47:17.60 | 1:48.30 | 212835 | 220964
22 | 49:06.15 | 0:41.17 | 220965 | 224056
23 | 49:47.32 | 3:19.35 | 224057 | 239016
24 | 53:06.67 | 0:58.70 | 239017 | 243436
25 | 54:05.62 | 1:00.18 | 243437 | 247954
26 | 55:06.05 | 0:43.60 | 247955 | 251239
27 | 55:49.65 | 1:18.35 | 251240 | 257124
28 | 57:08.25 | 1:31.15 | 257125 | 263964
Range status and errors
Selected range
Filename D:\EAC\Telemann - Don Quichotte auf der Hochzeit des Comancho, Schneider.wav
Peak level 93.0 %
Extraction speed 4.5 X
Range quality 99.9 %
Test CRC 0A1ECDD0
Copy CRC 0A1ECDD0
Copy OK
No errors occurred
AccurateRip summary
Track 1 accurately ripped (confidence 2) [D777CA3E] (AR v2)
Track 2 accurately ripped (confidence 2) [4AE56F8D] (AR v2)
Track 3 accurately ripped (confidence 2) [68B59889] (AR v2)
Track 4 accurately ripped (confidence 2) [0998694A] (AR v2)
Track 5 accurately ripped (confidence 2) [56E2CB80] (AR v2)
Track 6 accurately ripped (confidence 2) [9428612D] (AR v2)
Track 7 accurately ripped (confidence 2) [F6B8CC56] (AR v2)
Track 8 accurately ripped (confidence 2) [53997A9C] (AR v2)
Track 9 accurately ripped (confidence 2) [0634047F] (AR v2)
Track 10 accurately ripped (confidence 2) [B991903E] (AR v2)
Track 11 accurately ripped (confidence 2) [278586B6] (AR v2)
Track 12 accurately ripped (confidence 2) [A892C534] (AR v2)
Track 13 accurately ripped (confidence 2) [571AA368] (AR v2)
Track 14 accurately ripped (confidence 2) [89C34E04] (AR v2)
Track 15 accurately ripped (confidence 2) [56686745] (AR v2)
Track 16 accurately ripped (confidence 2) [8A20F2A1] (AR v2)
Track 17 accurately ripped (confidence 2) [43359BD1] (AR v2)
Track 18 accurately ripped (confidence 2) [F5CA02B9] (AR v2)
Track 19 accurately ripped (confidence 2) [2A15DAFF] (AR v2)
Track 20 accurately ripped (confidence 2) [FDA5F910] (AR v2)
Track 21 accurately ripped (confidence 2) [A4F3EDC9] (AR v2)
Track 22 accurately ripped (confidence 2) [2CF921BB] (AR v2)
Track 23 accurately ripped (confidence 2) [B815681F] (AR v2)
Track 24 accurately ripped (confidence 2) [13D4DE66] (AR v2)
Track 25 accurately ripped (confidence 2) [38280975] (AR v2)
Track 26 accurately ripped (confidence 2) [301E1561] (AR v2)
Track 27 accurately ripped (confidence 2) [14929C37] (AR v2)
Track 28 accurately ripped (confidence 2) [D22BD40B] (AR v2)
All tracks accurately ripped
End of status report
---- CUETools DB Plugin V2.1.3
[CTDB TOCID: zrw5sdV.jDL9Qk_mDvF1ztu7jQY-] found, Submit result: zrw5sdV.jDL9Qk_mDvF1ztu7jQY- has been confirmed
[c7a00475] (7/7) Accurately ripped
==== Log checksum BD0291DE414963936FC80A1361C87082F9189F9457BE996AA4AE605E635E4C7F ====

Содержание индексной карты (.CUE)

REM GENRE Opera
REM DATE 1993
REM DISCID B20DBF1C
REM COMMENT "ExactAudioCopy v1.0b3"
CATALOG 0761203921027
PERFORMER "Telemann"
TITLE "Don Quichotte auf der Hochzeit des Comancho, Schneider"
FILE "Telemann - Don Quichotte auf der Hochzeit des Comancho, Schneider.ape" WAVE
TRACK 01 AUDIO
TITLE "01 Aria - Don Quichotte - 'Ein wahrer Held eilt schon ins Feld'"
PERFORMER "Telemann"
INDEX 01 00:00:00
TRACK 02 AUDIO
TITLE "02 Recitativo - Sancho Pansa - 'Vortrefflich, Herr!'"
PERFORMER "Telemann"
INDEX 01 03:28:12
TRACK 03 AUDIO
TITLE "03 Aria - Sancho Pansa - 'Mich deucht, ich sehe noch die fürchterliche Decke'"
PERFORMER "Telemann"
INDEX 01 04:54:55
TRACK 04 AUDIO
TITLE "04 Recitatvo - Don Quichotte, Sancho Pansa - 'So kannst du denn Prellung nich..."
PERFORMER "Telemann"
INDEX 01 08:46:55
TRACK 05 AUDIO
TITLE "05 Aria - Don Quichotte - 'Kleinmütiger, hör auf zu klagen'"
PERFORMER "Telemann"
INDEX 01 09:57:07
TRACK 06 AUDIO
TITLE "06 Recitativo - Don Quichotte, Sancho Pansa - 'Bestrebst Du Dich also, dem Be..."
PERFORMER "Telemann"
INDEX 01 13:20:27
TRACK 07 AUDIO
TITLE "07 Aria - Sancho Pansa - 'Hat mich der große Menschenfresser"
PERFORMER "Telemann"
INDEX 01 14:41:30
TRACK 08 AUDIO
TITLE "08 Recitativo - Don Quichotte, Sancho Pansa - 'Sieh, Sancho, sieh! Hier gibt'..."
PERFORMER "Telemann"
INDEX 01 18:08:22
TRACK 09 AUDIO
TITLE "09 Coro - Sopran solo, Chor der Schäfer - 'Die schönste Schäferin beglückt de..."
PERFORMER "Telemann"
INDEX 01 18:56:05
TRACK 10 AUDIO
TITLE "10 Recitativo - Don Quichotte, Sancho Pansa, Grisostomo, Pedrillo - 'Herr! Ha..."
PERFORMER "Telemann"
INDEX 01 22:28:30
TRACK 11 AUDIO
TITLE "11 Aria - Don Quichotte - 'Beim Amadis, beim Ritter von der Sonne!'"
PERFORMER "Telemann"
INDEX 01 24:07:22
TRACK 12 AUDIO
TITLE "12 Recitativo - Don Quichotte, Sancho Pansa, Pedrillo - 'Was sagt mein Herr?'"
PERFORMER "Telemann"
INDEX 01 26:57:42
TRACK 13 AUDIO
TITLE "13 Aria - Sancho Pansa - 'Mein Esel ist das beste Tier'"
PERFORMER "Telemann"
INDEX 01 28:40:52
TRACK 14 AUDIO
TITLE "14 Recitativo - Don Quichotte, Sancho Pansa, Grisostomo, Pedrillo - 'So sehr ..."
PERFORMER "Telemann"
INDEX 01 31:26:57
TRACK 15 AUDIO
TITLE "15 Aria - Grisostomo - 'Kein Schlaf besucht die starren Augenlider'"
PERFORMER "Telemann"
INDEX 01 32:44:37
TRACK 16 AUDIO
TITLE "16 Recitativo - Don Quichotte, Sancho Pansa, Grisostomo - 'Er dauert mich!'"
PERFORMER "Telemann"
INDEX 01 37:03:25
TRACK 17 AUDIO
TITLE "16a Coro - 'Die schönste Schäferin'"
PERFORMER "Telemann"
INDEX 01 38:34:15
TRACK 18 AUDIO
TITLE "17 Recitativo - Sancho Pansa, Grisostomo, Pedrillo - 'Mich dünkt, es steigt e..."
PERFORMER "Telemann"
INDEX 01 42:04:35
TRACK 19 AUDIO
TITLE "18 Duetto - Don Quichotte, Sancho Pansa - 'Wenn ich die Trommel rühren hören'"
PERFORMER "Telemann"
INDEX 01 42:52:10
TRACK 20 AUDIO
TITLE "19 Recitativo - Don Quichotte, Sancho Pansa, Grisostomo - 'Dort kommt die Braut'"
PERFORMER "Telemann"
INDEX 01 46:09:62
TRACK 21 AUDIO
TITLE "20 Aria e coro - Grisostomo, Pedrillo, Chor der Schäfer - 'Dich, Schäfer, des..."
PERFORMER "Telemann"
INDEX 01 47:17:60
TRACK 22 AUDIO
TITLE "21 Recitativo - Comancho, Pedrillo, Chor der Schäfer - 'Geliebter Freundin, h..."
PERFORMER "Telemann"
INDEX 01 49:06:15
TRACK 23 AUDIO
TITLE "21a Recitativo accompagnato - Basilio, Sancho Pansa, Quitera, Comancho, Chor ..."
PERFORMER "Telemann"
INDEX 01 49:47:32
TRACK 24 AUDIO
TITLE "22 Aria - Basilio - 'Nun bist Du mein'"
PERFORMER "Telemann"
INDEX 01 53:06:67
TRACK 25 AUDIO
TITLE "23 Recitativo - Chor der Freunde des Comancho, Comancho, Don Quichotte, Sanch..."
PERFORMER "Telemann"
INDEX 01 54:05:62
TRACK 26 AUDIO
TITLE "24 Aria - Quiteria - 'Behalte nun dein Gold'"
PERFORMER "Telemann"
INDEX 01 55:06:05
TRACK 27 AUDIO
TITLE "25 Recitativo - Comancho, Basilio, Sancho Pansa - 'Nur nicht zu stolz'"
PERFORMER "Telemann"
INDEX 01 55:49:65
TRACK 28 AUDIO
TITLE "26 Coro - 'Die Klugheit ist vom günstigen Geschicke das kostbarste Geschenk'"
PERFORMER "Telemann"
INDEX 01 57:08:25



Показать сообщения:    

Текущее время: 05-Дек 05:32

Часовой пояс: UTC + 3


Вы не можете начинать темы
Вы не можете отвечать на сообщения
Вы не можете редактировать свои сообщения
Вы не можете удалять свои сообщения
Вы не можете голосовать в опросах
Вы не можете прикреплять файлы к сообщениям
Вы не можете скачивать файлы