(Classical) Шостакович, Свиридов, Вайнберг - Камерные симфонии - Солисты Москвы, Юрий Башмет - 2005, FLAC (image+.cue) lossless


 

[Цитировать]

Шостакович, Свиридов, Вайнберг - Камерные симфонии - Солисты Москвы, Юрий Башмет
Жанр: Classical
Год издания диска: 2005
Издатель (лейбл): Onyx
Номер по каталогу: ONYX 4007
Дата записи: 2005
Аудиокодек: FLAC
Тип рипа: image+.cue
Битрейт аудио: lossless
Продолжительность: 73:31
Источник: собственный рип
Наличие сканов в содержимом раздачи: да
Треклист:
Дмитрий Шостакович (1906-1975)
[1]-[5] Камерная симфония для струнного оркестра, Op.110a (1960)
(аранжировка струнного квартета №8, выполненная Рудольфом Баршаем)
Георгий Свиридов (1915-1998)
[6]-[9] Камерная симфония, Op.14 (1940)
Моисей Вайнберг (1919-1996)
[10]-[13] Камерная симфония №1 для струнного оркестра, Op.145 (1986)
Исполнители:
Солисты Москвы
Юрий Башмет

Лог создания рипа

Exact Audio Copy V1.0 beta 3 from 29. August 2011
EAC extraction logfile from 18. February 2015, 1:03
Moscow Soloists, Yuri Bashmet / Shostakovich, Sviridov, Weinberg - Chamber Symphonies
Used drive : HL-DT-STDVDRAM GU70N Adapter: 0 ID: 0
Read mode : Secure
Utilize accurate stream : Yes
Defeat audio cache : Yes
Make use of C2 pointers : No
Read offset correction : 48
Overread into Lead-In and Lead-Out : No
Fill up missing offset samples with silence : Yes
Delete leading and trailing silent blocks : No
Null samples used in CRC calculations : Yes
Used interface : Native Win32 interface for Win NT & 2000
Used output format : User Defined Encoder
Selected bitrate : 128 kBit/s
Quality : High
Add ID3 tag : No
Command line compressor : C:\Program Files (x86)\Exact Audio Copy\Flac\flac.exe
Additional command line options : -V -8 -T "Date=%year%" -T "Genre=%genre%" %source%
TOC of the extracted CD
Track | Start | Length | Start sector | End sector
---------------------------------------------------------
1 | 0:00.00 | 6:08.09 | 0 | 27608
2 | 6:08.09 | 2:55.20 | 27609 | 40753
3 | 9:03.29 | 5:10.23 | 40754 | 64026
4 | 14:13.52 | 6:15.30 | 64027 | 92181
5 | 20:29.07 | 4:48.51 | 92182 | 113832
6 | 25:17.58 | 4:33.56 | 113833 | 134363
7 | 29:51.39 | 3:22.66 | 134364 | 149579
8 | 33:14.30 | 6:55.66 | 149580 | 180770
9 | 40:10.21 | 6:44.37 | 180771 | 211107
10 | 46:54.58 | 8:35.70 | 211108 | 249802
11 | 55:30.53 | 10:01.67 | 249803 | 294944
12 | 65:32.45 | 4:00.03 | 294945 | 312947
13 | 69:32.48 | 3:58.49 | 312948 | 330846
Range status and errors
Selected range
Filename C:\temp\Shostakovich, Sviridov, Weinberg - Chamber Symphonies\Shostakovich, Sviridov, Weinberg - Chamber Symphonies.wav
Peak level 89.1 %
Extraction speed 2.3 X
Range quality 99.9 %
Test CRC 1A183866
Copy CRC 1A183866
Copy OK
No errors occurred
AccurateRip summary
Track 1 accurately ripped (confidence 2) [FF0E2B53] (AR v1)
Track 2 accurately ripped (confidence 2) [0233ECDA] (AR v1)
Track 3 accurately ripped (confidence 2) [27525C1D] (AR v1)
Track 4 accurately ripped (confidence 2) [7F48409A] (AR v1)
Track 5 accurately ripped (confidence 2) [26C51A80] (AR v1)
Track 6 accurately ripped (confidence 2) [A1E5C485] (AR v1)
Track 7 accurately ripped (confidence 2) [ECB2096D] (AR v1)
Track 8 accurately ripped (confidence 2) [6F884F15] (AR v1)
Track 9 accurately ripped (confidence 2) [76FA0466] (AR v1)
Track 10 accurately ripped (confidence 2) [36E1A19B] (AR v1)
Track 11 accurately ripped (confidence 2) [7B2DF530] (AR v1)
Track 12 accurately ripped (confidence 2) [99D36A10] (AR v1)
Track 13 accurately ripped (confidence 2) [8EDC8A27] (AR v1)
All tracks accurately ripped
End of status report
==== Log checksum E30C34B1B0285406D62DA56889A9AF32ED2F14CC2C724DAE1CDBD492DF49F054 ====



Показать сообщения:    

Текущее время: 10-Дек 04:12

Часовой пояс: UTC + 3


Вы не можете начинать темы
Вы не можете отвечать на сообщения
Вы не можете редактировать свои сообщения
Вы не можете удалять свои сообщения
Вы не можете голосовать в опросах
Вы не можете прикреплять файлы к сообщениям
Вы не можете скачивать файлы