Ален Делон о фильме Шок / Plateau Delon (Кристин Окрент / Christine Ockrent) [27.04.1982, документальный, кинематограф, IPTVRip-AVC] VO (Andi999) + Original (Fre) + Sub (rus)


Статистика раздачи [Обновить пиров]
Размер:  56 MB   |    Зарегистрирован:  8 месяцев 21 день   |    Скачан:  0 раз

Полного источника не было: Никогда

 
   
 
 
 

[Цитировать]

Ален Делон о фильме "Шок"
Plateau Delon- Дата/Год выпуска: 27.04.1982
Страна: Франция
Жанр: документальный, кинематограф
Продолжительность: 00:04:09
Перевод: Одноголосый закадровый (Andi999)
Русские субтитры: естьФормат субтитров: softsub (SRT)
Доп. информация о субтитрах: перевод Алексей Королев, инициатор Алексей Проскуряков ака Аleks Punk
Оригинальная аудиодорожка: французский
Режиссер: Кристин Окрент / Christine Ockrent
Телеканал: ina
Описание: Известная французская журналистка Кристин Окрент / Christine Ockrent, или как ее прозвали за безбоязненность и острый язык "Королева Кристина", в присущем ей стиле ведет разговор с Аленом Делоном в студии канала Antenne 2 накануне выхода в прокат фильма "Шок", где тот снялся с Катрин Денев.
Доп. информация: За предоставленный материал благодарность Aleks Punk

качество: IPTVRip-AVC
формат: MKV
Видео: AVC (H.264), 640x480 (4:3), 25 fps, ~1500 kbps avg, 0.195 bit/pixel
Аудио: AC3, 2 ch, 48 kHz, ~192.00 kbps avg

Пример субтитров

1
00:00:03,620 --> 00:00:07,740
Поговорим теперь о кино.
Приближается Каннский кинофестиваль.
2
00:00:07,900 --> 00:00:12,060
И вот только что стал известен
официальный список французских фильмов,
3
00:00:12,180 --> 00:00:14,020
которые будут там представлены.
4
00:00:14,140 --> 00:00:20,620
"Приглашение в путешествие"
Питера Дель Монте,"Приятное расследование насилия" Жерара Герина
5
00:00:20,780 --> 00:00:23,780
и "Во весь опор" Роберта Крамера.
6
00:00:23,900 --> 00:00:26,540
Ален Делон, вам знакомы
эти фильмы?
7
00:00:27,140 --> 00:00:30,540
- Фильмы, вы имеете в виду, которые выбрали?
- Эти три фильма, да.
- Нет, не знакомы.
8
00:00:30,620 --> 00:00:33,300
- То есть для вас это почти так же
неожиданно, как и для Франс Рош.
- Абсолютно, но
9
00:00:33,420 --> 00:00:39,100
я уважаю выбор комиссии, которая решила
представить Францию этими фильмами,
несомненно высокого качества.
10
00:00:39,300 --> 00:00:45,620
- Ваш новый фильм - "Шок" выходит
завтра, его выход окутан тайной,
11
00:00:45,820 --> 00:00:48,460
потому что никто, или почти никто,
кроме вас, его не видел .
12
00:00:48,620 --> 00:00:54,380
- Нет, не было ни частного показа,
ни для прессы, ни так называемого
показа для всего Парижа...
13
00:00:54,580 --> 00:00:58,060
Это совместное решение,- мое
и моего продюсера.
14
00:00:58,180 --> 00:01:00,660
Это выбор, и мы его сделали
осознанно.
15
00:01:00,900 --> 00:01:06,580
Я думаю, что фильм должен найти
свою первую аудиторию и свой
первый контакт с публикой.
16
00:01:06,820 --> 00:01:09,620
И прежде всего
мы ждем мнения публики.
17
00:01:09,740 --> 00:01:12,820
- Вы можете уже
как-то оценить его?
18
00:01:13,540 --> 00:01:15,860
- Послушайте...
- Или это будет интригой до завтра?
19
00:01:16,020 --> 00:01:18,500
- Это будет интригой до завтра...
20
00:01:18,580 --> 00:01:23,420
Как говорит название, я надеюсь,
что для зрителя фильм будет шоком.

MediaInfo

Общее
Уникальный идентификатор : 216400833085366118437930395510961489677 (0xA2CD48D140BAA4C692C193FA7CEE470D)
Полное имя : E:\My Torrents 2\[apreder]Plateau_Delon(27.04.1982)IPTVRip.mkv
Формат : Matroska
Версия формата : Version 2
Размер файла : 56,1 Мбайт
Продолжительность : 4 м. 9 с.
Общий поток : 1887 Кбит/сек
Дата кодирования : UTC 2015-03-28 09:05:52
Программа кодирования : mkvmerge v7.8.0 ('River Man') 64bit built on Mar 27 2015 16:31:37
Библиотека кодирования : libebml v1.3.1 + libmatroska v1.4.2
Видео
Идентификатор : 1
Формат : AVC
Формат/Информация : Advanced Video Codec
Профиль формата : High@L4.1
Параметр CABAC формата : Да
Параметр ReFrames формата : 16 кадров
Идентификатор кодека : V_MPEG4/ISO/AVC
Продолжительность : 4 м. 9 с.
Битрейт : 1500 Кбит/сек
Ширина : 640 пикселей
Высота : 480 пикселей
Соотношение сторон : 4:3
Режим частоты кадров : Постоянный
Частота кадров : 25,000 кадров/сек
Цветовое пространство : YUV
Субдискретизация насыщенности : 4:2:0
Битовая глубина : 8 бит
Тип развёртки : Прогрессивная
Бит/(Пиксели*Кадры) : 0.195
Размер потока : 43,6 Мбайт (78%)
Библиотека кодирования : x264 core 144 r2525 40bb568
Настройки программы : cabac=1 / ref=16 / deblock=1:-1:-1 / analyse=0x3:0x133 / me=umh / subme=10 / psy=1 / psy_rd=1.00:0.15 / mixed_ref=1 / me_range=24 / chroma_me=1 / trellis=2 / 8x8dct=1 / cqm=0 / deadzone=21,11 / fast_pskip=1 / chroma_qp_offset=-3 / threads=6 / lookahead_threads=1 / sliced_threads=0 / nr=0 / decimate=1 / interlaced=0 / bluray_compat=0 / constrained_intra=0 / bframes=8 / b_pyramid=2 / b_adapt=2 / b_bias=0 / direct=3 / weightb=1 / open_gop=0 / weightp=2 / keyint=250 / keyint_min=25 / scenecut=40 / intra_refresh=0 / rc_lookahead=60 / rc=2pass / mbtree=1 / bitrate=1500 / ratetol=1.0 / qcomp=0.60 / qpmin=0 / qpmax=69 / qpstep=4 / cplxblur=20.0 / qblur=0.5 / vbv_maxrate=62500 / vbv_bufsize=78125 / nal_hrd=none / filler=0 / ip_ratio=1.40 / aq=1:1.00
Default : Да
Forced : Нет
Аудио #1
Идентификатор : 2
Формат : AC-3
Формат/Информация : Audio Coding 3
Расширение режима : CM (complete main)
Параметр Endianness формата : Big
Идентификатор кодека : A_AC3
Продолжительность : 4 м. 9 с.
Вид битрейта : Постоянный
Битрейт : 192 Кбит/сек
Каналы : 2 канала
Расположение каналов : Front: L R
Частота : 48,0 КГц
Битовая глубина : 16 бит
Метод сжатия : С потерями
Размер потока : 5,70 Мбайт (10%)
Язык : Russian
Default : Да
Forced : Нет
Аудио #2
Идентификатор : 3
Формат : AC-3
Формат/Информация : Audio Coding 3
Расширение режима : CM (complete main)
Параметр Endianness формата : Big
Идентификатор кодека : A_AC3
Продолжительность : 4 м. 9 с.
Вид битрейта : Постоянный
Битрейт : 192 Кбит/сек
Каналы : 2 канала
Расположение каналов : Front: L R
Частота : 48,0 КГц
Битовая глубина : 16 бит
Метод сжатия : С потерями
Размер потока : 5,70 Мбайт (10%)
Язык : French
Default : Нет
Forced : Нет
Текст
Идентификатор : 4
Формат : UTF-8
Идентификатор кодека : S_TEXT/UTF8
Идентификатор кодека/Информация : UTF-8 Plain Text
Язык : Russian
Default : Да
Forced : Нет

Скриншоты

Резервные скриншоты

-[2'147]
[teatrix.ru].t20498.torrent 
Торрент: Зарегистрирован [ 2016-03-19 23:59 ] · 7314F722C80AF3B77257F92C0E5A7D9040130090

Скачать .torrent

Скачать

18 KB

Статус: проверено
Скачан: 0 раз
Размер: 56 MB
terms.php



Показать сообщения:    

Текущее время: 10-Дек 13:49

Часовой пояс: UTC + 3


Вы не можете начинать темы
Вы не можете отвечать на сообщения
Вы не можете редактировать свои сообщения
Вы не можете удалять свои сообщения
Вы не можете голосовать в опросах
Вы не можете прикреплять файлы к сообщениям
Вы можете скачивать файлы