(Classical / Baroque / World / Norway / ECM Records) Sinikka Langeland (Lars Anders Tomter, Kare Nordstoga) - Maria's Song - Folk songs and music J.S. Bach - 2009, FLAC (tracks+.cue) lossless


 

[Цитировать]

Sinikka Langeland - Maria's Song - Folk songs and music J.S. Bach
Жанр: Classical / Baroque / World / Norway
Страна-производитель диска: Germany
Год издания диска: 2009
Издатель (лейбл): ECM Records
Номер по каталогу: ECM 2127
Аудиокодек: FLAC
Тип рипа: tracks+.cue
Битрейт аудио: lossless
Продолжительность: 01:12:11
Источник: what.cd / спасибо kivius
Наличие сканов в содержимом раздачи: да
Треклист:
1. Lova lova Lina (00:51)
2. Meine Seele erhebet den Herren, BWV 648 (02:32)
3. Ave Maria (05:00)
4. Suite No. 1 in G major, BWV 1007: Prélude (02:17)
5. The angel Gabriel greets Mary (01:20)
6. Suite No. 1 in G major, BWV 1007: Allemande (03:34)
7. But the angel said to her (01:01)
8. Suite No. 1 in G major, BWV 1007: Courante (02:32)
9. He will be great (01:07)
10. Suite No. 1 in G major, BWV 1007: Sarabande (02:36)
11. Mary asked the angel (01:29)
12. Suite No. 1 in G major, BWV 1007: Menuet I & II (03:01)
13. Even Elizabeth (00:58)
14. Suite No. 1 in G major, BWV 1007: Suite No.1 in G major: Gigue (01:28)
15. Vom Himmel kam der Engel Schar, BWV 607/I am the Lord's servant (01:18)
16. Lova lova Lina (03:39)
17. Fuga sopra il Magnificat, BWV 733 (05:11)
18. Mary visits Elizabeth (00:54)
19. Kantele (00:58)
20. Concerto in d minor, BWV 596: I. (without tempo indication) / She was filled with the Holy Spirit (01:01)
21. Blessed is she who has believed (00:22)
22. Concerto in d minor, BWV 596: II. Fuga (04:07)
23. Song of Mary (02:20)
24. Kantele (00:54)
25. Concerto in d minor, BWV 596: III. Largo e spiccato/His mercy extends to those who fear him (02:58)
26. Concerto in d minor, BWV 596: IV. (without tempo indication) (03:32)
27. Kyrie (02:05)
28. Partita No. 2 in d minor, BWV 1004: Chaconne / Ave Maria (13:04)
Доп. информация:
Musicians:
Sinikka Langeland - voice, kantele
Lars Anders Tomter - viola
Kåre Nordstoga - organ
Recorded February 2008, Nidaros Cathedral, Trondheim
Sinikka Langeland - Maria's Song ecmrecords.com
Sinikka Langeland Official Site
Sinikka Langeland from Wikipedia, the free encyclopedia

... booklet 2-5 ...




Лог создания рипа

Exact Audio Copy V1.0 beta 3 from 29. August 2011
EAC extraction logfile from 8. May 2014, 2:34
Sinikka Langeland / Maria's Song
Used drive : TSSTcorpCDDVDW SE-208DB Adapter: 2 ID: 0
Read mode : Secure
Utilize accurate stream : Yes
Defeat audio cache : Yes
Make use of C2 pointers : No
Read offset correction : 6
Overread into Lead-In and Lead-Out : No
Fill up missing offset samples with silence : Yes
Delete leading and trailing silent blocks : No
Null samples used in CRC calculations : Yes
Used interface : Native Win32 interface for Win NT & 2000
Gap handling : Appended to previous track
Used output format : User Defined Encoder
Selected bitrate : 1024 kBit/s
Quality : High
Add ID3 tag : No
Command line compressor : C:\Program Files (x86)\Exact Audio Copy\FLAC\FLAC.EXE
Additional command line options : -8 -V -T "ARTIST=%artist%" -T "TITLE=%title%" -T "ALBUM=%albumtitle%" -T "DATE=%year%" -T "TRACKNUMBER=%tracknr%" -T "GENRE=%genre%" -T "PERFORMER=%albuminterpret%" -T "COMPOSER=%composer%" %haslyrics%--tag-from-file=LYRICS="%lyricsfile%"%haslyrics% -T "ALBUMARTIST=%albumartist%" -T "DISCNUMBER=%cdnumber%" -T "TOTALDISCS=%totalcds%" -T "TOTALTRACKS=%numtracks%" -T "COMMENT=%comment%" %source% -o %dest%
TOC of the extracted CD
Track | Start | Length | Start sector | End sector
---------------------------------------------------------
1 | 0:00.00 | 0:50.74 | 0 | 3823
2 | 0:50.74 | 2:32.13 | 3824 | 15236
3 | 3:23.12 | 5:00.40 | 15237 | 37776
4 | 8:23.52 | 2:17.12 | 37777 | 48063
5 | 10:40.64 | 1:20.31 | 48064 | 54094
6 | 12:01.20 | 3:34.10 | 54095 | 70154
7 | 15:35.30 | 1:01.26 | 70155 | 74755
8 | 16:36.56 | 2:32.08 | 74756 | 86163
9 | 19:08.64 | 1:07.31 | 86164 | 91219
10 | 20:16.20 | 2:35.47 | 91220 | 102891
11 | 22:51.67 | 1:28.65 | 102892 | 109556
12 | 24:20.57 | 3:01.19 | 109557 | 123150
13 | 27:22.01 | 0:58.30 | 123151 | 127530
14 | 28:20.31 | 1:27.66 | 127531 | 134121
15 | 29:48.22 | 1:17.38 | 134122 | 139934
16 | 31:05.60 | 3:38.35 | 139935 | 156319
17 | 34:44.20 | 5:10.42 | 156320 | 179611
18 | 39:54.62 | 0:54.16 | 179612 | 183677
19 | 40:49.03 | 0:58.30 | 183678 | 188057
20 | 41:47.33 | 1:00.73 | 188058 | 192630
21 | 42:48.31 | 0:22.18 | 192631 | 194298
22 | 43:10.49 | 4:07.11 | 194299 | 212834
23 | 47:17.60 | 2:19.66 | 212835 | 223325
24 | 49:37.51 | 0:54.01 | 223326 | 227376
25 | 50:31.52 | 2:58.24 | 227377 | 240750
26 | 53:30.01 | 3:31.72 | 240751 | 256647
27 | 57:01.73 | 2:05.24 | 256648 | 266046
28 | 59:07.22 | 13:04.12 | 266047 | 324858
Track 1
Filename W:\_MUSIC ALL\Sinikka Langeland - Maria's Song (2009) [FLAC]\01 - Sinikka Langeland - Lova lova Lina.wav
Pre-gap length 0:00:02.00
Peak level 56.4 %
Extraction speed 1.8 X
Track quality 100.0 %
Test CRC 73AF79A9
Copy CRC 73AF79A9
Accurately ripped (confidence 7) [E7849E8B] (AR v2)
Copy OK
Track 2
Filename W:\_MUSIC ALL\Sinikka Langeland - Maria's Song (2009) [FLAC]\02 - Kåre Nordstoga - Meine Seele erhebet den Herren, BWV 648.wav
Peak level 61.9 %
Extraction speed 2.6 X
Track quality 100.0 %
Test CRC EFDBF752
Copy CRC EFDBF752
Accurately ripped (confidence 7) [CCF5903B] (AR v2)
Copy OK
Track 3
Filename W:\_MUSIC ALL\Sinikka Langeland - Maria's Song (2009) [FLAC]\03 - Sinikka Langeland - Ave Maria.wav
Peak level 57.0 %
Extraction speed 3.1 X
Track quality 100.0 %
Test CRC 78A650FE
Copy CRC 78A650FE
Accurately ripped (confidence 7) [D6A71B61] (AR v2)
Copy OK
Track 4
Filename W:\_MUSIC ALL\Sinikka Langeland - Maria's Song (2009) [FLAC]\04 - Lars Anders Tomter - Suite No. 1 in G major, BWV 1007- Prélude.wav
Peak level 66.9 %
Extraction speed 2.9 X
Track quality 100.0 %
Test CRC 76679C4E
Copy CRC 76679C4E
Accurately ripped (confidence 7) [C55D07B6] (AR v2)
Copy OK
Track 5
Filename W:\_MUSIC ALL\Sinikka Langeland - Maria's Song (2009) [FLAC]\05 - Sinikka Langeland - The angel Gabriel greets Mary.wav
Peak level 55.9 %
Extraction speed 2.6 X
Track quality 100.0 %
Test CRC 9320EE35
Copy CRC 9320EE35
Accurately ripped (confidence 7) [C4A17DE6] (AR v2)
Copy OK
Track 6
Filename W:\_MUSIC ALL\Sinikka Langeland - Maria's Song (2009) [FLAC]\06 - Lars Anders Tomter - Suite No. 1 in G major, BWV 1007- Allemande.wav
Peak level 62.2 %
Extraction speed 2.7 X
Track quality 99.9 %
Test CRC D9F7A0DD
Copy CRC D9F7A0DD
Accurately ripped (confidence 7) [6993D742] (AR v2)
Copy OK
Track 7
Filename W:\_MUSIC ALL\Sinikka Langeland - Maria's Song (2009) [FLAC]\07 - Sinikka Langeland - But the angel said to her.wav
Peak level 44.4 %
Extraction speed 2.5 X
Track quality 100.0 %
Test CRC 74E27556
Copy CRC 74E27556
Accurately ripped (confidence 7) [3F1DA8C8] (AR v2)
Copy OK
Track 8
Filename W:\_MUSIC ALL\Sinikka Langeland - Maria's Song (2009) [FLAC]\08 - Lars Anders Tomter - Suite No. 1 in G major, BWV 1007- Courante.wav
Peak level 72.8 %
Extraction speed 3.4 X
Track quality 100.0 %
Test CRC 4FD4DB7F
Copy CRC 4FD4DB7F
Accurately ripped (confidence 7) [AEC0AF5F] (AR v2)
Copy OK
Track 9
Filename W:\_MUSIC ALL\Sinikka Langeland - Maria's Song (2009) [FLAC]\09 - Sinikka Langeland - He will be great.wav
Peak level 60.6 %
Extraction speed 2.6 X
Track quality 100.0 %
Test CRC DA95797F
Copy CRC DA95797F
Accurately ripped (confidence 7) [2483E8C5] (AR v2)
Copy OK
Track 10
Filename W:\_MUSIC ALL\Sinikka Langeland - Maria's Song (2009) [FLAC]\10 - Lars Anders Tomter - Suite No. 1 in G major, BWV 1007- Sarabande.wav
Peak level 56.5 %
Extraction speed 3.5 X
Track quality 100.0 %
Test CRC AA02D8C4
Copy CRC AA02D8C4
Accurately ripped (confidence 7) [539EAF66] (AR v2)
Copy OK
Track 11
Filename W:\_MUSIC ALL\Sinikka Langeland - Maria's Song (2009) [FLAC]\11 - Sinikka Langeland - Mary asked the angel.wav
Peak level 45.8 %
Extraction speed 3.1 X
Track quality 100.0 %
Test CRC F392B43B
Copy CRC F392B43B
Accurately ripped (confidence 7) [85C002D8] (AR v2)
Copy OK
Track 12
Filename W:\_MUSIC ALL\Sinikka Langeland - Maria's Song (2009) [FLAC]\12 - Lars Anders Tomter - Suite No. 1 in G major, BWV 1007- Menuet I & II.wav
Peak level 53.6 %
Extraction speed 2.9 X
Track quality 99.9 %
Test CRC BB98746D
Copy CRC BB98746D
Accurately ripped (confidence 7) [6F421197] (AR v2)
Copy OK
Track 13
Filename W:\_MUSIC ALL\Sinikka Langeland - Maria's Song (2009) [FLAC]\13 - Sinikka Langeland - Even Elizabeth.wav
Peak level 53.5 %
Extraction speed 1.6 X
Track quality 99.8 %
Test CRC 5A0D3545
Copy CRC 5A0D3545
Accurately ripped (confidence 7) [3EC76D64] (AR v2)
Copy OK
Track 14
Filename W:\_MUSIC ALL\Sinikka Langeland - Maria's Song (2009) [FLAC]\14 - Lars Anders Tomter - Suite No. 1 in G major, BWV 1007- Suite No. 1 in G major- Gigue.wav
Peak level 59.8 %
Extraction speed 3.2 X
Track quality 100.0 %
Test CRC C74E19F8
Copy CRC C74E19F8
Accurately ripped (confidence 7) [5F6F4CD7] (AR v2)
Copy OK
Track 15
Filename W:\_MUSIC ALL\Sinikka Langeland - Maria's Song (2009) [FLAC]\15 - Sinikka Langeland & Kåre Nordstoga - Vom Himmel kam der Engel Schar, BWV 607 , I am the Lord's servant.wav
Peak level 68.1 %
Extraction speed 3.1 X
Track quality 100.0 %
Test CRC BA82F967
Copy CRC BA82F967
Accurately ripped (confidence 7) [AC9E580E] (AR v2)
Copy OK
Track 16
Filename W:\_MUSIC ALL\Sinikka Langeland - Maria's Song (2009) [FLAC]\16 - Sinikka Langeland - Lova lova Lina.wav
Peak level 59.5 %
Extraction speed 3.3 X
Track quality 99.9 %
Test CRC EF98652A
Copy CRC EF98652A
Accurately ripped (confidence 7) [766CCA62] (AR v2)
Copy OK
Track 17
Filename W:\_MUSIC ALL\Sinikka Langeland - Maria's Song (2009) [FLAC]\17 - Kåre Nordstoga - Fuga sopra il Magnificat, BWV 733.wav
Peak level 88.2 %
Extraction speed 4.5 X
Track quality 100.0 %
Test CRC 1C97D39F
Copy CRC 1C97D39F
Accurately ripped (confidence 7) [29FC6EA3] (AR v2)
Copy OK
Track 18
Filename W:\_MUSIC ALL\Sinikka Langeland - Maria's Song (2009) [FLAC]\18 - Sinikka Langeland - Mary visits Elizabeth.wav
Peak level 55.4 %
Extraction speed 2.9 X
Track quality 100.0 %
Test CRC 7E76B1A7
Copy CRC 7E76B1A7
Accurately ripped (confidence 7) [4E1654D1] (AR v2)
Copy OK
Track 19
Filename W:\_MUSIC ALL\Sinikka Langeland - Maria's Song (2009) [FLAC]\19 - Sinikka Langeland - Kantele.wav
Peak level 57.2 %
Extraction speed 1.8 X
Track quality 99.8 %
Test CRC 930CC056
Copy CRC 930CC056
Accurately ripped (confidence 7) [7DAB6ACE] (AR v2)
Copy OK
Track 20
Filename W:\_MUSIC ALL\Sinikka Langeland - Maria's Song (2009) [FLAC]\20 - Sinikka Langeland & Kåre Nordstoga - Concerto in D minor, BWV 596- I. (without tempo indication) , She was filled with the Holy Spirit.wav
Peak level 75.2 %
Extraction speed 3.1 X
Track quality 100.0 %
Test CRC 2286A7C9
Copy CRC 2286A7C9
Accurately ripped (confidence 7) [D647CCCA] (AR v2)
Copy OK
Track 21
Filename W:\_MUSIC ALL\Sinikka Langeland - Maria's Song (2009) [FLAC]\21 - Sinikka Langeland - Blessed is she who has believed.wav
Peak level 49.7 %
Extraction speed 0.8 X
Track quality 99.5 %
Test CRC 48C9AC64
Copy CRC 48C9AC64
Accurately ripped (confidence 7) [19F27FF6] (AR v2)
Copy OK
Track 22
Filename W:\_MUSIC ALL\Sinikka Langeland - Maria's Song (2009) [FLAC]\22 - Kåre Nordstoga - Concerto in D minor, BWV 596- II. Grave & Fuga.wav
Peak level 91.1 %
Extraction speed 4.5 X
Track quality 100.0 %
Test CRC 84A838DB
Copy CRC 84A838DB
Accurately ripped (confidence 7) [91038E6A] (AR v2)
Copy OK
Track 23
Filename W:\_MUSIC ALL\Sinikka Langeland - Maria's Song (2009) [FLAC]\23 - Sinikka Langeland - Song of Mary.wav
Peak level 70.6 %
Extraction speed 4.2 X
Track quality 100.0 %
Test CRC 9EA91EA9
Copy CRC 9EA91EA9
Accurately ripped (confidence 7) [C8B5E481] (AR v2)
Copy OK
Track 24
Filename W:\_MUSIC ALL\Sinikka Langeland - Maria's Song (2009) [FLAC]\24 - Sinikka Langeland - Kantele.wav
Peak level 41.7 %
Extraction speed 3.1 X
Track quality 100.0 %
Test CRC E26C338E
Copy CRC E26C338E
Accurately ripped (confidence 7) [5B653E6D] (AR v2)
Copy OK
Track 25
Filename W:\_MUSIC ALL\Sinikka Langeland - Maria's Song (2009) [FLAC]\25 - Sinikka Langeland & Kåre Nordstoga - Concerto in D minor, BWV 596- III. Largo e spiccato , His mercy extends to those who fear him.wav
Peak level 51.7 %
Extraction speed 4.6 X
Track quality 100.0 %
Test CRC B1A83F9F
Copy CRC B1A83F9F
Accurately ripped (confidence 7) [C30443B0] (AR v2)
Copy OK
Track 26
Filename W:\_MUSIC ALL\Sinikka Langeland - Maria's Song (2009) [FLAC]\26 - Kåre Nordstoga - Concerto in D minor, BWV 596- IV. (without tempo indication).wav
Peak level 80.2 %
Extraction speed 4.8 X
Track quality 100.0 %
Test CRC 25FBB524
Copy CRC 25FBB524
Accurately ripped (confidence 7) [DCFD1B68] (AR v2)
Copy OK
Track 27
Filename W:\_MUSIC ALL\Sinikka Langeland - Maria's Song (2009) [FLAC]\27 - Sinikka Langeland - Kyrie.wav
Peak level 51.9 %
Extraction speed 4.4 X
Track quality 100.0 %
Test CRC BBA54AE6
Copy CRC BBA54AE6
Accurately ripped (confidence 7) [1B2458B5] (AR v2)
Copy OK
Track 28
Filename W:\_MUSIC ALL\Sinikka Langeland - Maria's Song (2009) [FLAC]\28 - Sinikka Langeland & Lars Anders Tomter - Partita No. 2 in D minor, BWV 1004- Chaconne , Ave Maria.wav
Peak level 68.4 %
Extraction speed 5.3 X
Track quality 99.9 %
Test CRC 97F335EB
Copy CRC 97F335EB
Accurately ripped (confidence 7) [7BF4A390] (AR v2)
Copy OK
All tracks accurately ripped
No errors occurred
End of status report
---- CUETools DB Plugin V2.1.3
[CTDB TOCID: Y4by1UZ8B6xs7WEcUeLTVqHcmPk-] found, Submit result: Y4by1UZ8B6xs7WEcUeLTVqHcmPk- has been confirmed
[94cfbc2e] (2/2) Accurately ripped
==== Log checksum B0C544FBB098A68E9AD637603EF73AA58BAF8BDC6E72004F83C77479478C5F0B ====

Содержание индексной карты (.CUE)

REM GENRE Classical
REM DATE 2009
REM DISCID 9110EB1C
REM COMMENT "ExactAudioCopy v1.0b3"
CATALOG 0602527170978
PERFORMER "Sinikka Langeland"
TITLE "Maria's Song"
FILE "01 - Lova lova Lina.wav" WAVE
TRACK 01 AUDIO
TITLE "Lova lova Lina"
PERFORMER "Sinikka Langeland"
ISRC DEB330812701
INDEX 01 00:00:00
FILE "02 - Meine Seele erhebet den Herren, BWV 648.wav" WAVE
TRACK 02 AUDIO
TITLE "Meine Seele erhebet den Herren, BWV 648"
PERFORMER "Kare Nordstoga"
ISRC DEB330812702
INDEX 01 00:00:00
FILE "03 - Ave Maria.wav" WAVE
TRACK 03 AUDIO
TITLE "Ave Maria"
PERFORMER "Sinikka Langeland"
ISRC DEB330812703
INDEX 01 00:00:00
FILE "04 - Suite No. 1 in G major, BWV 1007- Prelude.wav" WAVE
TRACK 04 AUDIO
TITLE "Suite No. 1 in G major, BWV 1007: Prelude"
PERFORMER "Lars Anders Tomter"
ISRC DEB330812704
INDEX 01 00:00:00
FILE "05 - The angel Gabriel greets Mary.wav" WAVE
TRACK 05 AUDIO
TITLE "The angel Gabriel greets Mary"
PERFORMER "Sinikka Langeland"
ISRC DEB330812704
INDEX 01 00:00:00
FILE "06 - Suite No. 1 in G major, BWV 1007- Allemande.wav" WAVE
TRACK 06 AUDIO
TITLE "Suite No. 1 in G major, BWV 1007: Allemande"
PERFORMER "Lars Anders Tomter"
ISRC DEB330812706
INDEX 01 00:00:00
FILE "07 - But the angel said to her.wav" WAVE
TRACK 07 AUDIO
TITLE "But the angel said to her"
PERFORMER "Sinikka Langeland"
ISRC DEB330812707
INDEX 01 00:00:00
FILE "08 - Suite No. 1 in G major, BWV 1007- Courante.wav" WAVE
TRACK 08 AUDIO
TITLE "Suite No. 1 in G major, BWV 1007: Courante"
PERFORMER "Lars Anders Tomter"
ISRC DEB330812708
INDEX 01 00:00:00
FILE "09 - He will be great.wav" WAVE
TRACK 09 AUDIO
TITLE "He will be great"
PERFORMER "Sinikka Langeland"
ISRC DEB330812708
INDEX 01 00:00:00
FILE "10 - Suite No. 1 in G major, BWV 1007- Sarabande.wav" WAVE
TRACK 10 AUDIO
TITLE "Suite No. 1 in G major, BWV 1007: Sarabande"
PERFORMER "Lars Anders Tomter"
ISRC DEB330812710
INDEX 01 00:00:00
FILE "11 - Mary asked the angel.wav" WAVE
TRACK 11 AUDIO
TITLE "Mary asked the angel"
PERFORMER "Sinikka Langeland"
ISRC DEB330812711
INDEX 01 00:00:00
FILE "12 - Suite No. 1 in G major, BWV 1007- Menuet I & II.wav" WAVE
TRACK 12 AUDIO
TITLE "Suite No. 1 in G major, BWV 1007: Menuet I & II"
PERFORMER "Lars Anders Tomter"
ISRC DEB330812712
INDEX 01 00:00:00
FILE "13 - Even Elizabeth.wav" WAVE
TRACK 13 AUDIO
TITLE "Even Elizabeth"
PERFORMER "Sinikka Langeland"
ISRC DEB330812713
INDEX 01 00:00:00
FILE "14 - Suite No. 1 in G major, BWV 1007- Suite No. 1 in G major.wav" WAVE
TRACK 14 AUDIO
TITLE "Suite No. 1 in G major, BWV 1007: Suite No. 1 in G major"
PERFORMER "Lars Anders Tomter"
ISRC DEB330812714
INDEX 01 00:00:00
FILE "15 - Vom Himmel kam der Engel Schar.wav" WAVE
TRACK 15 AUDIO
TITLE "Vom Himmel kam der Engel Schar"
PERFORMER "Sinikka Langeland & Kare Nordstoga"
ISRC DEB330812715
INDEX 01 00:00:00
FILE "16 - Lova lova Lina.wav" WAVE
TRACK 16 AUDIO
TITLE "Lova lova Lina"
PERFORMER "Sinikka Langeland"
ISRC DEB330812716
INDEX 01 00:00:00
FILE "17 - Fuga sopra il Magnificat, BWV 733.wav" WAVE
TRACK 17 AUDIO
TITLE "Fuga sopra il Magnificat, BWV 733"
PERFORMER "Kare Nordstoga"
ISRC DEB330812717
INDEX 01 00:00:00
FILE "18 - Mary visits Elizabeth.wav" WAVE
TRACK 18 AUDIO
TITLE "Mary visits Elizabeth"
PERFORMER "Sinikka Langeland"
ISRC DEB330812718
INDEX 01 00:00:00
FILE "19 - Kantele.wav" WAVE
TRACK 19 AUDIO
TITLE "Kantele"
PERFORMER "Sinikka Langeland"
ISRC DEB330812719
INDEX 01 00:00:00
FILE "20 - Concerto in D minor, BWV 596- I.wav" WAVE
TRACK 20 AUDIO
TITLE "Concerto in D minor, BWV 596: I"
PERFORMER "Sinikka Langeland & Kare Nordstoga"
ISRC DEB330812720
INDEX 01 00:00:00
FILE "21 - Blessed is she who has believed.wav" WAVE
TRACK 21 AUDIO
TITLE "Blessed is she who has believed"
PERFORMER "Sinikka Langeland"
ISRC DEB330812721
INDEX 01 00:00:00
FILE "22 - Concerto in D minor, BWV 596- II. Grave & Fuga.wav" WAVE
TRACK 22 AUDIO
TITLE "Concerto in D minor, BWV 596: II. Grave & Fuga"
PERFORMER "Kare Nordstoga"
ISRC DEB330812722
INDEX 01 00:00:00
FILE "23 - Song of Mary.wav" WAVE
TRACK 23 AUDIO
TITLE "Song of Mary"
PERFORMER "Sinikka Langeland"
ISRC DEB330812723
INDEX 01 00:00:00
FILE "24 - Kantele.wav" WAVE
TRACK 24 AUDIO
TITLE "Kantele"
PERFORMER "Sinikka Langeland"
ISRC DEB330812724
INDEX 01 00:00:00
FILE "25 - Concerto in D minor, BWV 596- III.wav" WAVE
TRACK 25 AUDIO
TITLE "Concerto in D minor, BWV 596: III"
PERFORMER "Sinikka Langeland & Kare Nordstoga"
ISRC DEB330812725
INDEX 01 00:00:00
FILE "26 - Concerto in D minor, BWV 596- IV. (without tempo indication).wav" WAVE
TRACK 26 AUDIO
TITLE "Concerto in D minor, BWV 596: IV. (without tempo indication)"
PERFORMER "Kare Nordstoga"
ISRC DEB330812726
INDEX 01 00:00:00
FILE "27 - Kyrie.wav" WAVE
TRACK 27 AUDIO
TITLE "Kyrie"
PERFORMER "Sinikka Langeland"
ISRC DEB330812727
INDEX 01 00:00:00
FILE "28 - Partita No. 2 in D minor, BWV 1004.wav" WAVE
TRACK 28 AUDIO
TITLE "Partita No. 2 in D minor, BWV 1004"
PERFORMER "Sinikka Langeland & Lars Anders Tomter"
ISRC DEB330812728
INDEX 01 00:00:00



Показать сообщения:    

Текущее время: 10-Дек 10:00

Часовой пояс: UTC + 3


Вы не можете начинать темы
Вы не можете отвечать на сообщения
Вы не можете редактировать свои сообщения
Вы не можете удалять свои сообщения
Вы не можете голосовать в опросах
Вы не можете прикреплять файлы к сообщениям
Вы не можете скачивать файлы