Мадам Анни Жирардо. Последний дубль (Жанна Андреева) [2010, документальный, биографический, DVB]


Статистика раздачи [Обновить пиров]
Размер:  1.29 GB   |    Зарегистрирован:  8 месяцев 15 дней   |    Скачан:  0 раз

Полного источника не было: Никогда

 
   
 
 
 

[Цитировать]

Мадам Анни Жирардо
Последний дубль- Дата/Год выпуска: 2010
Страна: Россия
Жанр: документальный, биографический
Продолжительность: 00:52:01
Перевод: Не требуется
Русские субтитры: нет
Режиссер: Жанна Андреева
Телеканал: Время: далекое и близкоеВ ролях: Анни Жирардо, Пьер Ришар, Клод Лелуш, Николя Болье, Валерий Ахадов, Джулия Сальватори, Андрей Плахов, Анна Селье, Лола Фогель, Александр Пашков, Александр Панкратов-Черный
Описание: Она блистала на киноэкране, была музой режиссеров, королевой мужских сердец, но так и не сумела стать счастливой. Всю жизнь легенда французского кино Анни Жирардо искала себя, разрываясь между работой в Париже и Римом, где актрису ждал любящий муж Ренато Сальватори. Она всегда считала себя оптимисткой и приучила других видеть в ней сильную и уверенную в себе женщину. В 80-е саму Жирардо "забыли" на полтора десятилетия - она практически перестала сниматься в своей стране. И в 1996 году, когда ей вручали французскую кинопремию "Сезар", Анни, обращаясь к свои коллегам по профессии, со слезами на глазах сказала: "Я, наверное, была вам не нужна все эти годы, но мне самой так не хватало французского кино! Нет, я еще не умерла!". Ее все считали сильной, может быть, поэтому никто во Франции не заметил, что в течение последних лет жизнь Анни Жирардо постепенно превратилась в кошмар.
Доп. информация: DVB-S - исходник.

качество: DVB
формат: MKV
Видео: MPEG Video 2, 720x576@768x576 (4:3), 25 fps, ~3295 kbps avg, 0.318 bit/pixel
Аудио: MPEG Audio 2, 2 ch, 48 kHz, ~192.00 kbps avg

MediaInfo

Общее
Уникальный идентификатор : 217186921933236571938270545927895724245 (0xA364ADFD6A293AAA9DBF654F9EEF30D5)
Полное имя : E:\My Torrents 2\[apreder]Madame_Annie_Girardot(2010)DVB.mkv
Формат : Matroska
Версия формата : Version 2
Размер файла : 1,29 Гбайт
Продолжительность : 52 м.
Режим общего битрейта : Переменный
Общий поток : 3558 Кбит/сек
Дата кодирования : UTC 2015-03-01 17:34:22
Программа кодирования : mkvmerge v7.7.0 ('Six Voices') 64bit built on Feb 28 2015 23:39:33
Библиотека кодирования : libebml v1.3.1 + libmatroska v1.4.2
Видео
Идентификатор : 1
Формат : MPEG Video
Версия формата : Version 2
Профиль формата : Main@Main
Параметр BVOP формата : Да
Параметр матрицы формата : Выборочная
Параметр GOP формата : M=3, N=12
Format_Settings_PictureStructure : Frame
Идентификатор кодека : V_MPEG2
Идентификатор кодека/Информация : MPEG 1 or 2 Video
Продолжительность : 52 м.
Вид битрейта : Переменный
Битрейт : 3295 Кбит/сек
Ширина : 720 пикселей
Высота : 576 пикселей
Соотношение сторон : 4:3
Режим частоты кадров : Постоянный
Частота кадров : 25,000 кадров/сек
Стандарт вещания : PAL
Цветовое пространство : YUV
Субдискретизация насыщенности : 4:2:0
Битовая глубина : 8 бит
Тип развёртки : Чересстрочная
Порядок развёртки : Верхнее поле первое
Метод сжатия : С потерями
Бит/(Пиксели*Кадры) : 0.318
Временной код первого кадра : 00:00:00:00
Оригинал временного кода : Group of pictures header
Размер потока : 1,20 Гбайт (93%)
Default : Да
Forced : Нет
Gop_OpenClosed_FirstFrame : Closed
Аудио
Идентификатор : 2
Формат : MPEG Audio
Версия формата : Version 1
Профиль формата : Layer 2
Идентификатор кодека : A_MPEG/L2
Идентификатор кодека/Подсказка : MP2
Продолжительность : 52 м.
Вид битрейта : Постоянный
Битрейт : 192 Кбит/сек
Каналы : 2 канала
Частота : 48,0 КГц
Метод сжатия : С потерями
Размер потока : 71,5 Мбайт (5%)
Язык : Russian
Default : Да
Forced : Нет

Скриншоты

Резервные скриншоты

-[2'149]
[teatrix.ru].t20500.torrent 
Торрент: Зарегистрирован [ 2016-03-19 23:59 ] · 3704B8192482D611B5DF768792897D7CBCBE8796

Скачать .torrent

Скачать

13 KB

Статус: проверено
Скачан: 0 раз
Размер: 1.29 GB
terms.php



Быстрый ответ

Имя:

      
Для отправки сообщений необходимо включить JavaScript
Показать сообщения:    

Текущее время: 04-Дек 13:17

Часовой пояс: UTC + 3


Вы можете начинать темы
Вы можете отвечать на сообщения
Вы не можете редактировать свои сообщения
Вы не можете удалять свои сообщения
Вы не можете голосовать в опросах
Вы не можете прикреплять файлы к сообщениям
Вы можете скачивать файлы