(Classical) Фелисьен Давид – Струнные квартеты № 1, 2 и 4 / Felicien David — String quartets Nos. 1, 2 & 4 (Quatuor Cambini-Paris: Julien Chauvin, Karine Crocquenoy, Pierre-Eric Nimylowycz, Atsushi Sakai) - 2011, FLAC (image+.cue) lossless


 

[Цитировать]

Фелисьен Давид – Струнные квартеты № 1, 2 и 4 / Félicien David — String quartets Nos. 1, 2 & 4 (Quatuor Cambini-Paris: Julien Chauvin, Karine Crocquenoy, Pierre-Éric Nimylowycz, Atsushi Sakaï)
Жанр: Classical
Страна-производитель диска: Франция
Год издания диска: 2011
Издатель (лейбл): naïve-ambroisie
Номер по каталогу: AM 206
Дата записи: сентябрь 2010 г., Париж.
Аудиокодек: FLAC
Тип рипа: image+.cue
Битрейт аудио: lossless
Продолжительность: 00:56:18
Источник: odeonmusic
Наличие сканов в содержимом раздачи: да
Треклист:
Фелисьен Сезар Давид (1810 — 1876).
Струнный квартет № 1 f-moll (1868).
01. I. Allegretto [08:03].
02. II. Andante [07:49].
03. III. Scherzo. Allegro [02:37].
04. IV. Finale. Allegretto [06:56].
Струнный квартет № 2 A-dur (ок. 1869).
05. I. Allegretto grazioso [08:21].
06. II. Andante [07:21].
07. III. Allegretto [03:26].
08. IV. Allegro risoluto [04:22].
Струнный квартет № 4 e-moll (1876; неоконченный).
09. I. Allegro ma non troppo [07:17].
Исполнители:
Quatuor Cambini-Paris:
Julien Chauvin (скрипка),
Karine Crocquenoy (скрипка),
Pierre-Éric Nimylowycz (альт),
Atsushi Sakaï (виолончель).

Лог создания рипа

Exact Audio Copy V1.0 beta 3 from 29. August 2011
EAC extraction logfile from 6. December 2012, 11:40
Quatuor Cambini Paris / Félicien David - String Quartets Nos. 1, 2 & 4 - Quatuor Cambini Paris
Used drive : TSSTcorpCDDVDW SH-222BB Adapter: 2 ID: 1
Read mode : Secure
Utilize accurate stream : Yes
Defeat audio cache : Yes
Make use of C2 pointers : No
Read offset correction : 6
Overread into Lead-In and Lead-Out : No
Fill up missing offset samples with silence : Yes
Delete leading and trailing silent blocks : No
Null samples used in CRC calculations : Yes
Used interface : Native Win32 interface for Win NT & 2000
Used output format : User Defined Encoder
Selected bitrate : 1024 kBit/s
Quality : High
Add ID3 tag : No
Command line compressor : C:\Program Files\Exact Audio Copy\Flac\flac.exe
Additional command line options : -8 -V -T "TITLE=%title%" -T "ARTIST=%artist%" -T "ALBUMARTIST=%albumartist%" -T "ALBUM=%albumtitle%" -T "DATE=%year%" -T "TRACKNUMBER=%tracknr%" -T "TRACKTOTAL=%numtracks%" -T "GENRE=%genre%" -T "COMMENT=%comment%" -T "PERFORMER=%albuminterpret%" -T "COMPOSER=%composer%" %source% -o %dest%
TOC of the extracted CD
Track | Start | Length | Start sector | End sector
---------------------------------------------------------
1 | 0:00.00 | 8:03.58 | 0 | 36282
2 | 8:03.58 | 7:49.64 | 36283 | 71521
3 | 15:53.47 | 2:37.03 | 71522 | 83299
4 | 18:30.50 | 6:56.74 | 83300 | 114573
5 | 25:27.49 | 8:21.08 | 114574 | 152156
6 | 33:48.57 | 7:23.02 | 152157 | 185383
7 | 41:11.59 | 3:27.04 | 185384 | 200912
8 | 44:38.63 | 4:22.16 | 200913 | 220578
9 | 49:01.04 | 7:25.40 | 220579 | 253993
Range status and errors
Selected range
Filename G:\Ripped general\[9340] Félicien David – String Quartets – Quatuor Cambini-Paris\Félicien David - String Quartets Nos. 1, 2 & 4 - Quatuor Cambini Paris.wav
Peak level 99.4 %
Extraction speed 7.0 X
Range quality 100.0 %
Test CRC 0BB6A492
Copy CRC 0BB6A492
Copy OK
No errors occurred
AccurateRip summary
Track 1 not present in database
Track 2 not present in database
Track 3 not present in database
Track 4 not present in database
Track 5 not present in database
Track 6 not present in database
Track 7 not present in database
Track 8 not present in database
Track 9 not present in database
None of the tracks are present in the AccurateRip database
End of status report

Содержание индексной карты (.CUE)

REM GENRE Classical
REM DISCID 730D3A09
REM COMMENT "ExactAudioCopy v1.0b3"
PERFORMER "Quatuor Cambini-Paris"
TITLE "Felicien David – String quartets Nos. 1, 2 & 4 – Quatuor Cambini-Paris"
FILE "Felicien David – String quartets Nos. 1, 2 & 4 – Quatuor Cambini-Paris.flac" WAVE
TRACK 01 AUDIO
TITLE "String Quartet No. 1 in F minor - I. Allegretto"
PERFORMER "Quatuor Cambini-Paris"
INDEX 01 00:00:00
TRACK 02 AUDIO
TITLE "String Quartet No. 1 in F minor - II. Andante"
PERFORMER "Quatuor Cambini-Paris"
INDEX 01 08:03:58
TRACK 03 AUDIO
TITLE "String Quartet No. 1 in F minor - III. Scherzo. Allegro"
PERFORMER "Quatuor Cambini-Paris"
INDEX 01 15:53:47
TRACK 04 AUDIO
TITLE "String Quartet No. 1 in F minor - IV. Finale. Allegretto"
PERFORMER "Quatuor Cambini-Paris"
INDEX 01 18:30:50
TRACK 05 AUDIO
TITLE "String Quartet No. 2 in A major - I. Allegretto grazioso"
PERFORMER "Quatuor Cambini-Paris"
INDEX 01 25:27:49
TRACK 06 AUDIO
TITLE "String Quartet No. 2 in A major - II. Andante"
PERFORMER "Quatuor Cambini-Paris"
INDEX 01 33:48:57
TRACK 07 AUDIO
TITLE "String Quartet No. 2 in A major - III. Allegretto"
PERFORMER "Quatuor Cambini-Paris"
INDEX 01 41:11:59
TRACK 08 AUDIO
TITLE "String Quartet No. 2 in A major - IV. Allegro risoluto"
PERFORMER "Quatuor Cambini-Paris"
INDEX 01 44:38:63
TRACK 09 AUDIO
TITLE "String Quartet No. 4 in E minor (unfinished)"
PERFORMER "Quatuor Cambini-Paris"
INDEX 01 49:01:04

Вариант индексной карты (.CUE) с выставленными зазорами

REM GENRE Classical
REM DISCID 730D3A09
REM COMMENT "ExactAudioCopy v1.0b3"
PERFORMER "Quatuor Cambini-Paris"
TITLE "Felicien David – String quartets Nos. 1, 2 & 4 – Quatuor Cambini-Paris"
FILE "Felicien David – String quartets Nos. 1, 2 & 4 – Quatuor Cambini-Paris.flac" WAVE
TRACK 01 AUDIO
TITLE "String Quartet No. 1 in F minor - I. Allegretto"
PERFORMER "Quatuor Cambini-Paris"
INDEX 01 00:00:00
TRACK 02 AUDIO
TITLE "String Quartet No. 1 in F minor - II. Andante"
PERFORMER "Quatuor Cambini-Paris"
INDEX 00 08:00:67
INDEX 01 08:03:58
TRACK 03 AUDIO
TITLE "String Quartet No. 1 in F minor - III. Scherzo. Allegro"
PERFORMER "Quatuor Cambini-Paris"
INDEX 00 15:50:66
INDEX 01 15:53:47
TRACK 04 AUDIO
TITLE "String Quartet No. 1 in F minor - IV. Finale. Allegretto"
PERFORMER "Quatuor Cambini-Paris"
INDEX 00 18:29:71
INDEX 01 18:30:50
TRACK 05 AUDIO
TITLE "String Quartet No. 2 in A major - I. Allegretto grazioso"
PERFORMER "Quatuor Cambini-Paris"
INDEX 00 25:20:65
INDEX 01 25:27:49
TRACK 06 AUDIO
TITLE "String Quartet No. 2 in A major - II. Andante"
PERFORMER "Quatuor Cambini-Paris"
INDEX 00 33:47:13
INDEX 01 33:48:57
TRACK 07 AUDIO
TITLE "String Quartet No. 2 in A major - III. Allegretto"
PERFORMER "Quatuor Cambini-Paris"
INDEX 00 41:09:00
INDEX 01 41:11:59
TRACK 08 AUDIO
TITLE "String Quartet No. 2 in A major - IV. Allegro risoluto"
PERFORMER "Quatuor Cambini-Paris"
INDEX 00 44:33:74
INDEX 01 44:38:63
TRACK 09 AUDIO
TITLE "String Quartet No. 4 in E minor (unfinished)"
PERFORMER "Quatuor Cambini-Paris"
INDEX 00 48:53:55
INDEX 01 49:01:04
INDEX 02 56:19:62



Показать сообщения:    

Текущее время: 04-Дек 21:22

Часовой пояс: UTC + 3


Вы не можете начинать темы
Вы не можете отвечать на сообщения
Вы не можете редактировать свои сообщения
Вы не можете удалять свои сообщения
Вы не можете голосовать в опросах
Вы не можете прикреплять файлы к сообщениям
Вы не можете скачивать файлы