(Classical) Фелисьен Давид – Фортепианные трио № 2 и 3 / Felicien David – Piano trios Nos. 2 & 3 (Ilona Prunyi, Eszter Perenyi, Tibor Parkanyi) - 1993, FLAC (image+.cue) lossless


 

[Цитировать]

Фелисьен Давид – Фортепианные трио № 2 и 3 / Félicien David – Piano trios Nos. 2 & 3 (Ilona Prunyi, Eszter Perényi, Tibor Párkányi)
Жанр: Classical
Страна-производитель диска: Дания
Год издания диска: 1993
Издатель (лейбл): Marco Polo (Naxos)
Номер по каталогу: 8.223492
Дата записи: 22 — 25 октября 1991 г., Будапешт.
Аудиокодек: FLAC
Тип рипа: image+.cue
Битрейт аудио: lossless
Продолжительность: 01:03:54
Источник: odeonmusic
Наличие сканов в содержимом раздачи: да
Треклист:
Фелисьен Сезар Давид (1810 — 1876).
Фортепианное трио № 3 c-moll (опубл. 1857).
01. I. Allegretto [13:56].
02. II. Andante [09:46].
03. III. Scherzo [07:37].
04. IV. Finale. Allegro [08:27].
Фортепианное трио № 2 d-moll (опубл. 1857).
05. I. Allegro moderato [11:44].
06. II. Adagio non troppo [07:08].
07. III. Scherzo finale. Allegro non troppo [07:0].
Исполнители:
Ilona Prunyi (фортепиано),
Eszter Perényi (скрипка),
Tibor Párkányi (виолончель).

Лог создания рипа

Exact Audio Copy V1.0 beta 3 from 29. August 2011
EAC extraction logfile from 6. December 2012, 12:19
Various Artists / Félicien David - Piano Trios No2, No.3 - Prunyi, Perényi, Párkányi
Used drive : TSSTcorpCDDVDW SH-222BB Adapter: 2 ID: 1
Read mode : Secure
Utilize accurate stream : Yes
Defeat audio cache : Yes
Make use of C2 pointers : No
Read offset correction : 6
Overread into Lead-In and Lead-Out : No
Fill up missing offset samples with silence : Yes
Delete leading and trailing silent blocks : No
Null samples used in CRC calculations : Yes
Used interface : Native Win32 interface for Win NT & 2000
Used output format : User Defined Encoder
Selected bitrate : 1024 kBit/s
Quality : High
Add ID3 tag : No
Command line compressor : C:\Program Files\Exact Audio Copy\Flac\flac.exe
Additional command line options : -8 -V -T "TITLE=%title%" -T "ARTIST=%artist%" -T "ALBUMARTIST=%albumartist%" -T "ALBUM=%albumtitle%" -T "DATE=%year%" -T "TRACKNUMBER=%tracknr%" -T "TRACKTOTAL=%numtracks%" -T "GENRE=%genre%" -T "COMMENT=%comment%" -T "PERFORMER=%albuminterpret%" -T "COMPOSER=%composer%" %source% -o %dest%
TOC of the extracted CD
Track | Start | Length | Start sector | End sector
---------------------------------------------------------
1 | 0:00.00 | 12:00.02 | 0 | 54001
2 | 12:00.02 | 9:47.55 | 54002 | 98081
3 | 21:47.57 | 7:37.35 | 98082 | 132391
4 | 29:25.17 | 8:34.43 | 132392 | 170984
5 | 37:59.60 | 11:46.25 | 170985 | 223959
6 | 49:46.10 | 7:08.70 | 223960 | 256129
7 | 56:55.05 | 6:59.70 | 256130 | 287624
Range status and errors
Selected range
Filename G:\Ripped general\[1611] Félicien David – Piano Trios No2, No.3 – Prunyi, Perényi, Párkányi\Félicien David - Piano Trios No2, No.3 - Prunyi, Perényi, Párkányi.wav
Peak level 98.0 %
Extraction speed 7.0 X
Range quality 100.0 %
Test CRC AD41A64F
Copy CRC AD41A64F
Copy OK
No errors occurred
AccurateRip summary
Track 1 cannot be verified as accurate (confidence 1) [4BA99F29], AccurateRip returned [1FD2D33D] (AR v2)
Track 2 cannot be verified as accurate (confidence 1) [57BF7965], AccurateRip returned [8123B7F8] (AR v2)
Track 3 cannot be verified as accurate (confidence 1) [E41B4F9F], AccurateRip returned [55F6C55F] (AR v2)
Track 4 cannot be verified as accurate (confidence 1) [6BA93232], AccurateRip returned [6BC34F6D] (AR v2)
Track 5 cannot be verified as accurate (confidence 1) [AF0DF4E8], AccurateRip returned [B5F7CBD0] (AR v2)
Track 6 cannot be verified as accurate (confidence 1) [49F6476B], AccurateRip returned [1AAE377E] (AR v2)
Track 7 cannot be verified as accurate (confidence 1) [7E0DD696], AccurateRip returned [908F1939] (AR v2)
No tracks could be verified as accurate
You may have a different pressing from the one(s) in the database
End of status report

Содержание индексной карты (.CUE)

REM GENRE Classical
REM DATE 1993
REM DISCID 660EFB07
REM COMMENT "ExactAudioCopy v1.0b3"
PERFORMER "Ilona Prunyi, Eszter Perenyi & Tibor Parkanyi"
TITLE "Felicien David – Piano trios Nos. 2 & 3 – Prunyi, Perenyi, Parkanyi"
FILE "Felicien David – Piano trios Nos. 2 & 3 – Prunyi, Perenyi, Parkanyi.flac" WAVE
TRACK 01 AUDIO
TITLE "Piano Trio No. 3 in C minor - I. Allegretto"
PERFORMER "Ilona Prunyi, Eszter Perenyi & Tibor Parkanyi"
INDEX 01 00:00:00
TRACK 02 AUDIO
TITLE "Piano Trio No. 3 in C minor - II. Andante"
PERFORMER "Ilona Prunyi, Eszter Perenyi & Tibor Parkanyi"
INDEX 00 11:57:32
INDEX 01 12:00:02
TRACK 03 AUDIO
TITLE "Piano Trio No. 3 in C minor - III. Scherzo"
PERFORMER "Ilona Prunyi, Eszter Perenyi & Tibor Parkanyi"
INDEX 00 21:45:60
INDEX 01 21:47:57
TRACK 04 AUDIO
TITLE "Piano Trio No. 3 in C minor - IV. Finale. Allegro"
PERFORMER "Ilona Prunyi, Eszter Perenyi & Tibor Parkanyi"
INDEX 01 29:25:17
TRACK 05 AUDIO
TITLE "Piano Trio No. 2 in D minor - I. Allegro moderato"
PERFORMER "Ilona Prunyi, Eszter Perenyi & Tibor Parkanyi"
INDEX 00 37:51:60
INDEX 01 37:59:60
TRACK 06 AUDIO
TITLE "Piano Trio No. 2 in D minor - II. Adagio non troppo"
PERFORMER "Ilona Prunyi, Eszter Perenyi & Tibor Parkanyi"
INDEX 00 49:44:20
INDEX 01 49:46:10
TRACK 07 AUDIO
TITLE "Piano Trio No. 2 in D minor - III. Scherzo finale. Allegro non troppo"
PERFORMER "Ilona Prunyi, Eszter Perenyi & Tibor Parkanyi"
INDEX 01 56:55:05



Показать сообщения:    

Текущее время: 05-Дек 23:40

Часовой пояс: UTC + 3


Вы не можете начинать темы
Вы не можете отвечать на сообщения
Вы не можете редактировать свои сообщения
Вы не можете удалять свои сообщения
Вы не можете голосовать в опросах
Вы не можете прикреплять файлы к сообщениям
Вы не можете скачивать файлы