[TR24][OF] Maria Callas - The First Recital [1949] (Richard Wagner, Vincenzo Bellini) - 2014 (Classical, Opera)


Статистика раздачи [Обновить пиров]
Размер:  252 MB   |    Зарегистрирован:  8 месяцев 21 день   |    Скачан:  0 раз

Полного источника не было: Никогда

 
   
 
 
 

[Цитировать]

Maria Callas
The First Recital
- Год издания: 2014
Жанр: Classical, Opera
Издатель (лейбл): Warner Classics
Продолжительность: 00:24:01
Наличие сканов: Covers, Digital Booklet
- -
Richard Wagner (1813-1883)
Tristan und Isolde, Act 3
01. "Mild und leise" (Isolde - Liebestod) - Sung in Italian (7:44)
Vincenzo Bellini (1801-1835)
Norma, Act 1
02. "Casta Diva" (Norma) (6:49)
03. "Ah! bello a me ritorna" (Norma) (2:15)
I puritani, Act 2
04. "O, rendetemi la speme" (Elvira) (1:07)
05. "Qui la voce sua soave" (Elvira) (3:42)
06. "Vien, diletto, è in ciel la luna" (Elvira) (2:24)
-Maria Callas - soprano
Orchestra Sinfonica di Torino della RAI
Arturo Basile - conductor
Recorded: 8–10.XI.1949, Auditorium RAI, Turin

-
Контейнер: FLAC (*.flac)
Тип рипа: tracks
Разрядность: 24bit / 96kHz
Количество каналов: 2.0
-О релизе
Callas: the first studio recordings
These remarkable recordings of three very different arias, made over three days in November 1949, present very nearly the first documented examples of the voice and art of Maria Callas – preceded only by a few surviving excerpts from her appearances at the Teatro Colón earlier the same year. It is not surprising that her singing on these recordings astonished listeners then; what truly amazes is that it still does, 65 years on.
When Callas made these, her first commercial records, she was a 25-year-old dramatic soprano who had made her Italian debut as Gioconda, following that role with Isolde, Turandot, Leonora in La forza del destino, Aida and Norma – almost always under the guidance of her mentor, Tullio Serafin, who taught her the role of Norma. Aware of Callas’s bel canto style and agility, learned in her student days in Greece with retired coloratura Elvira de Hidalgo, Serafin did not hesitate to insist the young soprano take over the role of Elvira in I puritani when lyric coloratura Margherita Carosio became indisposed. Never mind the fact that Callas was singing Brünnhilde in Die Walküre at the time! The revelation of a dramatic soprano d’agilità restoring Puritani to its place as music drama, while easily managing the inherently florid music, began a bel canto revolution the impact of which is still felt today.
Callas’s voice was a recalcitrant instrument, at that time thoroughly trained but not thoroughly tamed. Tone poured out in cascading waves, almost too freely, and the sound was not conventionally beautiful. Yet, in these recordings, there is not only an arresting artistic personality, but also a dazzling command of florid music – all manner of runs, diatonic and chromatic scales, and a full-throated E flat in alt that is thrilling beyond words. But it is never virtuosity for its own sake – all of it is enormously expressive. Expressivity permeates every note, word, phrase of all three arias, Callas’s plangent tone and superhuman legato serving the Bellini and also the Wagner – after all, Wagner worshipped Bellini’s long-lined melodies. In all three arias, Callas achieves an uncanny dual effect – characters that are dreamlike yet very human, singing that is imperfect, yet beyond perfection.
-
Recorded: 8–10.XI.1949, Auditorium RAI, Turin
Newly remastered from the original 78 rpm discs at Abbey Road Studios
Original sound recordings made by Fonit Cetra SpA. A Warner Music Group Company

ОтчётыДинамический диапазон

foobar2000 1.2.2 / Dynamic Range Meter 1.1.1
log date: 2015-03-02 12:27:14
--------------------------------------------------------------------------------
Analyzed: Maria Callas, Orchestra Sinfonica di Torino della RAI, Arturo Basile / Maria Callas: The First Recital (1949)
--------------------------------------------------------------------------------
DR Peak RMS Duration Track
--------------------------------------------------------------------------------
DR11 -0.04 dB -15.98 dB 7:44 ?-Tristan und Isolde, Act 3: "Mild und leise" (Isolde - Liebestod) - Sung in Italian
DR12 -0.30 dB -18.51 dB 6:49 ?-Norma, Act 1: "Casta Diva" (Norma)
DR9 -0.86 dB -14.20 dB 2:15 ?-Norma, Act 1: "Ah! bello a me ritorna" (Norma)
DR12 -3.52 dB -22.08 dB 1:07 ?-I puritani, Act 2: "O, rendetemi la speme" (Elvira)
DR12 -1.78 dB -20.10 dB 3:42 ?-I puritani, Act 2: "Qui la voce sua soave" (Elvira)
DR10 -0.88 dB -16.37 dB 2:24 ?-I puritani, Act 2: "Vien, diletto, è in ciel la luna" (Elvira)
--------------------------------------------------------------------------------
Number of tracks: 6
Official DR value: DR11
Samplerate: 96000 Hz
Channels: 2
Bits per sample: 24
Bitrate: 1451 kbps
Codec: FLAC
================================================================================

Скриншот спектра частот

Доп. информация

При скачивании, если необходимо, переименуйте папку, в которой будет находиться альбомБольшая просьба к скачавшим поддерживать раздачу! Помогайте другим, ведь вам тоже может понадобиться помощь!Не забываем говорить "Спасибо"!Комментарии приветствуются!
Maria Callas Hi-Res
[teatrix.ru].t20503.torrent 
Торрент: Зарегистрирован [ 2016-03-19 23:59 ] · 055137171CE6869840BE172949E4BFDE849C0F5B

Скачать .torrent

Скачать

21 KB

Статус: проверено
Скачан: 0 раз
Размер: 252 MB
terms.php



Быстрый ответ

Имя:

      
Для отправки сообщений необходимо включить JavaScript
Показать сообщения:    

Текущее время: 10-Дек 15:44

Часовой пояс: UTC + 3


Вы можете начинать темы
Вы можете отвечать на сообщения
Вы не можете редактировать свои сообщения
Вы не можете удалять свои сообщения
Вы не можете голосовать в опросах
Вы не можете прикреплять файлы к сообщениям
Вы можете скачивать файлы