(Classical) Heinrich Schütz (Schuetz, Schutz) - Symphoniae Sacrae I SWV 257-276 (Capella Fidicinia, Peter Schreier, Gothart Stier, Hermann Christian Polster, cond. Hans Grüss (Gruess, Gruss)) 2 CDs - 1997, FLAC (tracks+.cue)


Статистика раздачи [Обновить пиров]
Размер:  510 MB   |    Зарегистрирован:  8 месяцев 15 дней   |    Скачан:  0 раз

Полного источника не было: Никогда

 
   
 
 
 

[Цитировать]

(Classical) Heinrich Schütz - Symphoniae Sacrae I SWV 257-276 (Capella Fidicinia, Peter Schreier, Gothart Stier, Hermann Christian Polster, cond. Hans Grüss) 2 CDs - 1997, FLAC (tracks+.cue) lossless
Жанр: Classical
Страна-производитель диска: Germany
Год издания диска: 1997
Издатель (лейбл): Capriccio, Delta Music GmbH, Berlin Classics, Edel
Номер по каталогу: 0092502BC
Дата записи: 1984
Аудиокодек: FLAC
Тип рипа: tracks+.cue
Битрейт аудио: lossless
Продолжительность: 1:41:09 (45:17 + 55:52)
Источник: собственный рип
Наличие сканов в содержимом раздачи: да
Треклист (с исполнителями для каждого трека):

Disk 1: SWV 257 (mit Discantus), 260, 265, 266, 269, 271, 272, 273, 275, 276

[1] Cantabo Domino in vita mea 5:17
SWV 260

Исполнители

Peter Schreier, Tenor
Eberhard Palm, Violine I • Violin I
Manfred Otte, Violino II
Thekla Waldbaur, Flauto I
Reiner Gebauer, Flauto II
Basso continuo:
Günter Angerhöfer, Baß-Dulzian • Bass dulcian
Roland Zimmer, Laute I • Lute I
Franz Just, Laute II • Lute II
Siegfried Pank, Tenor-Viola da gamba • Tenor viol
Achim Beyer, Violone
Walter Heinz Bernstein, Cembalo • Harpsichord
[2] O quam tu pulchra es 4:36
(Prima pars) SWV 265
[3] Veni de Libano, amica mea 4:16
(Secunda pars) SWV 266

Исполнители

Peter Schreier, Tenor
Gothart Stier, Bariton
Eberhard Palm, Violino I
Manfred Otte, Violino II
Thekla Waldbaur, Flauto I
Reiner Gebauer, Flauto II
Basso continuo:
Frank Beyer, Tenor-Posaune alter Mensur Tenor trombone, traditional bore
Roland Zimmer, Laute I • Lute I
Franz Just, Laute II • Lute II
Siegfried Pank, Tenor-Viola da gamba • Tenor viol
Achim Beyer, Violone
Walter Heinz Bernstein, Orgel • Organ
[4] Paratum cor meum, Deus 4:07
SWV 257 (mit Discantus)

Исполнители

Werner Marschall, Discantus • Descant
Thekla Waldbaur, Flauto I
Reiner Gebauer, Flauto II
Basso continuo:
Siegfried Pank, Tenor-Viola da gamba • Tenor viol
Achim Beyer, Violone
Walter Heinz Bernstein, Orgel • Organ
[5] Domine, labia mea aperies 4:23
SWV 271

Исполнители

Michael Diedrich, Knabensopran • Boy soprano
Thomas Nitschke, Knabensopran • Boy soprano
Albrecht Lepetit, Tenor
Heiner Ullmann, Zink • Cornett
Gerhard Weißenborn, Tenor-Posaune alter Mensur • Tenor trombone, traditional bore
Günter Angerhöfer, Baß-Dulzian • Bass dulcian
Basso continuo:
Siegfried Pank, Tenor-Viola da gamba • Tenor viol
Achim Beyer, Violone
Walter Heinz Bernstein, Orgel • Organ
[6] Fili mi Absalon 5:08
SWV 269

Исполнители

Hermann Christian Polster, Baß • Bass
Gerhard Weißenborn, Tenor-Posaune alter Mensur I • Tenor trombone, traditional bore I
Ralf Weiner, Tenor-Posaune alter Mensur II Tenor trombone, traditional bore II
Lutz Grützmann, Tenor-Posaune alter Mensur III Tenor trombone, traditional bore III
Frank Beyer, Baß-Posaune alter Mensur Bass trombone, traditional bore
Basso continuo:
Roland Zimmer, Laute I • Lute I
Franz Just, Laute II • Lute II
Siegfried Pank, Tenor-Viola da gamba • Tenor viol
Achim Beyer, Violone
Walter Heinz Bernstein, Orgel • Organ
[7] In lectulo per noctes 5:37
(Prima pars) SWV 272
[8] Invenerunt me custodes Civitatis 4:34
(Secunda pars) SWV 273

Исполнители

Werner Marschall, Discantus • Descant
Ekkehard Wagner, Altus
Christian Beuse, Tenor-Dulzian • Tenor dulcian
Lutz Klepel, Baß-Dulzian I • Bass dulcian I
Günter Angerhöfer, Baß-Dulzian II • Bass dulcian II
Basso continuo:
Roland Zimmer, Laute I • Lute I
Franz Just, Laute II • Lute II
Siegfried Pank, Tenor-Viola da gamba • Tenor viol
Achim Beyer, Violone
Walter Heinz Bernstein, Orgel • Organ
[9] Buccinate in neomenia tuba 3:55
(Prima pars) SWV 275
[10] Jubilate Deo in chordis et organo 2:54
(Secunda pars) SWV 276

Исполнители

Ekkehard Wagner, Tenor I
Reinhart Ginzel, Tenor II
Günther Schmidt, Baß • Bass
Andreas Voigt, Zink • Cornett
Ludwig Güttler, Trombetta
Günter Angerhöfer, Baß-Dulzian • Bass dulcian
Basso continuo:
Siegfried Pank, Tenor-Viola da gamba • Tenor viol
Achim Beyer, Violone
Walter Heinz Bernstein, Orgel • Organ

Disk 2: SWV 257 (mit Tenor), 258, 259, 261, 262, 263, 264, 267, 268, 270, 274

[1] Jubilate Deo omnis terra 5:36
SWV 262

Исполнители

Hermann Christian Polster, Baß • Bass
Thekla Waldbaur, Flautino I
Reiner Gebauer, Flautino II
Basso continuo:
Roland Zimmer, Laute I • Lute I
Franz Just, Laute II • Lute II
Siegfried Pank, Tenor-Viola da gamba • Tenor viol
Achim Beyer, Violone
[2] Anima mea liquefacta est 3:46
(Prima pars) SWV 263
[3] Adjuro vos, filiae Jerusalem 3:34
(Secunda pars) SWV 264

Исполнители

Ekkehard Wagner, Tenor I
Reinhart Ginzel, Tenor II
Andreas Voigt, Zink I • Cornett I
Heiner Ullmann, Zink II • Cornett II
Basso continuo:
Roland Zimmer, Laute • Lute
Franz Just, Laute • Lute
Günter Angerhöfer, Baß-Dulzian • Bass dulcian
Achim Beyer, Violone
Walter Heinz Bernstein, Orgel • Organ
[4] Exsultavit cor meum in Domino 4:51
SWV 258

Исполнители

Werner Marschall, Discantus • Descant
Jutta Redder, Violino I
Christian Redder, Violino II
Basso continuo:
Frank Beyer, Baß-Posaune alter Mensur Bass trombone, traditional bore
Achim Beyer, Violone
Walter Heinz Bernstein, Orgel • Organ
[5] In te, Domine, speravi 5:32
SWV 259

Исполнители

Ekkehard Wagner, Altus
Manfred Otte, Violino
Günter Angerhöfer, Baß-Dulzian • Bass dulcian
Basso continuo:
Achim Beyer, Violone
Walter Heinz Bernstein, Orgel • Organ
[6] Veni, dilecte mi, in hortum meum 5:10
SWV274

Исполнители

Michael Diedrich, Knabensopran • Boy soprano
Norbert Kleinschmidt, Knabensopran • Boy soprano
Thomas Nitschke, Knabensopran • Boy soprano
Werner Marschall, Discantus • Descant
Ekkehard Wagner, Tenor
Gerhard Weißenborn, Alt-Posaune alter Mensur Alto trombone, traditional bore
Ralf Weiner, Tenor-Posaune alter Mensur I Tenor trombone, traditional bore I
Frank Beyer, Tenor-Posaune alter Mensur II Tenor trombone, traditional bore II
Basso continuo:
Siegfried Pank, Tenor-Viola da gamba • Tenor viol
Roland Zimmer, Laute • Lute
Franz Just, Laute • Lute
Achim Beyer, Violone
Walter Heinz Bernstein, Orgel • Organ
[7] Venite ad me omnes qui laboratis 8:18
SWV 261

Исполнители

Peter Schreier, Tenor
Eberhard Palm, Violino I
Manfred Otte, Violino II
Thekla Waldbaur, Flauto I
Reiner Gebauer, Flauto II
Basso continuo:
Günter Angerhöfer, Baß-Dulzian • Bass dulcian
Roland Zimmer, Laute I • Lute I
Franz Just, Laute II • Lute II
Siegfried Pank, Tenor-Viola da gamba • Tenor viol
Achim Beyer, Violone
Walter Heinz Bernstein, Orgel • Organ
[8] Benedicam Dominum in omni tempore 3:26
(Prima pars) SWV 267
[9] Exquisivi Dominum et exaudivit me 3:33
(Secunda pars) SWV 268

Исполнители

Werner Marschall, Discantus • Descant
Ekkehard Wagner, Tenor
Günther Schmidt, Baß ■ Bass
Andreas Voigt, Zink • Cornett
Basso continuo:
Frank Beyer, Baß-Posaune alter Mensur Bass trombone, traditional bore
Achim Beyer, Violone
Walter Heinz Bernstein, Orgel • Organ
[10] Attendite, popule meus, legem meam 7:44
SWV 270

Исполнители

Hermann Christian Polster, Baß • Bass
Gerhard Weißenborn, Tenor-Posaune alter Mensur I Tenor trombone, traditional bore I
Lutz Grützmann, Tenor-Posaune alter Mensur II Tenor trombone, traditional bore II
Ralf Weiner, Tenor-Posaune alter Mensur III Tenor trombone, traditional bore III
Frank Beyer, Baß-Posaune alter Mensur Bass trombone, traditional bore
Basso continuo:
Roland Zimmer, Laute • Lute
Franz Just, Laute • Lute
Achim Beyer, Violone
Walter Heinz Bernstein, Orgel • Organ
[11] Paratum cor meum, Deus 3:41
SWV 257 (mit Tenor)

Исполнители

Ekkehard Wagner, Tenor
Doris Linde, Alt-Viola da gamba I Small tenor viol I
Monika Tutschku, Alt-Viola da gamba II Small tenor viol II
Basso continuo:
Roland Zimmer, Laute I • Lute I
Franz Just, Laute II • Lute II
Siegfried Pank, Tenor-Viola da gamba • Tenor viol
Achim Beyer, Violone
Walter Heinz Bernstein, Cembalo • Harpsichord
Capella Fidicinia am Musikinstrumenten-Museum der Karl-Marx-Universität Leipzig
HANS GRÜß

Исполнители

Общий список для обоих дисков

Peter Schreier, Albrecht Lepetit, Reinhart Ginzel, Tenor
Ekkehard Wagner, Tenor, Altus
Werner Marschall, Discantus • Descant
Michael Diedrich, Thomas Nitschke, Norbert Kleinschmidt, Knabensopran • Boy soprano
Gothart Stier, Bariton
Hermann Christian Polster, Günther Schmidt, Baß • Bass
Christian Beuse, Tenor-Dulzian • Tenor dulcian
Andreas Voigt, Heiner Ullmann, Zink • Cornett
Ludwig Güttler, Trombetta
Thekla Waldbaur, Reiner Gebauer, Flauto
Lutz Klepel, Günter Angerhöfer, Baß-Dulzian • Bass dulcian
Lutz Grützmann, Ralf Weiner, Tenor-Posaune alter Mensur • Tenor trombone, traditional bore
Gerhard Weißenborn, Tenor-Posaune alter Mensur, Alt-Posaune alter Mensur • Alto trombone, traditional bore; Tenor trombone, traditional bore
Frank Beyer, Baß-Posaune alter Mensur, Tenor-Posaune alter Mensur • Bass trombone, traditional bore, Tenor trombone, traditional bore
Jutta Redder, Christian Redder, Eberhard Palm, Manfred Otte, Violine • Violin
Doris Linde, Monika Tutschku, Alt-Viola da gamba • Small tenor viol
Roland Zimmer, Franz Just, Laute • Lute
Siegfried Pank, Tenor-Viola da gamba • Tenor viol
Achim Beyer, Violone
Walter Heinz Bernstein, Cembalo • Harpsichord; Orgel • Organ
Capella Fidicinia am Musikinstrumenten-Museum der Karl-Marx-Universität Leipzig
Leitung: HANS GRÜß

Образцовые исполнения музыки Генриха Шютца (Heinrich Schütz, 1585-1672) Дрезденским Кройцхором (Dresdner Kreuzchor) и "лейпцигско-дрезденской" группой (Петер Шрайер и другие) под управлением Ханса Грюсса в серии, начатой 25-м кройцкантором Рудольфом Мауэрсбергером (Rudolf Mauersberger); другие раздачи этой серии см. ниже. На этих двух дисках записан первый том "трехтомника" Symphoniae Sacrae (SWV 257–276, вышел в 1629 в Венеции; том II SWV 341-367, опубликован в 1647 году, а том III c SWV 398–418 - в 1650 году, оба в Дрездене). В серию эта запись входит по праву - здесь и мальчиковые сопрано самого Дрезденского Кройцхора, и экс-кройцхоровец тенор Петер Шрайер и другие солисты, и наконец дирижер-аутентист Ханс Грюсс и его "Капелла Фидикиния", с которой записывал свои диски Мауэрсбергер. Однако внимание! - данная запись не воспроизводит выпущенные VEB Deutsche Schallplatten (серия ETERNA) две виниловые пластики Symphoniae Sacrae 1 и 2 (цифры тут не случайно не римские - они просто призваны отличать одну пластинку от другой и к римской нумерации томов Шютца не имеют никакого отношения); те были записаны в 1967 году п/у Мауэрсбергера и включали в себя несколько вещей из всех трех томов, но близко не подходили к полной записи (на пластинке 1 были следующие вещи из тома III: SWV 405, 407, 409, 413-416, 418; на пластинке 2 были SWV 260-262 из тома I, 359-360 из тома II и 403, 406 и 411 из тома III). Данное издание не является, стало быть, переизданием "Этерны"; его, на сегодняшний день, собственно, увы, и не существует - фирме Edel, наследнику VEB Deutsche Schallplatten, еще работать и работать. Мауэрсбергер, как известно, планировал записать всего Шютца; сколько реально им было записано из Symphoniae Sacrae на основании треклистов пластинок судить сложно, и кто его знает, может в архивах "Этерны" есть что-то еще помимо непереизданных двух пластинок; но наличие предложенной в этой раздаче записи (а также записи Symphoniae Sacrae II этим же составом, доступное в этой раздаче), сделанной ближайшими союзниками Мауэрсбергера (более того - они же, собственно, и записывали в 1967 те две виниловые пластики) "кагбе намекает", что едва ли - и что сама эта запись есть реализация проекта, который скончавшийся в 1971 году Мауэрсбергер реализовать не успел (и пришлось за него 20 лет спустя дирижировать уже самому Грюссу).
В раздачу включены сканы обложек (как данного переиздания, так и оригинальные обложки ГДРовских виниловых пластинок), дисков и буклета (как сканы, так и полнотекстовый пдф), которой содержит также и тексты исполняемых произведений на латыни (и в перевод на немецкий).

Выходные данные записи

0092502BC
Recording: Dresden, Lukaskirche, 2, 6, 10/1984
Recording Producer: Heinz Wegner • Balance Engineer: Horst Kunze; Eberhard Richter
Recording Engineer: Horst-Dieter Käppier; Michael Richter • Editing: Hildegard Miehe
Co-Produktion mit Delta Musik GmbH, Frechen
Cover: Masaccio: »Petrus verteilt Almosen«; Fresko in der Brancacci-Kapelle von S. Maria del Carmine in
Florenz, um 1425
Coverphoto: bildarchiv preussischer kulturbesitz, Berlin • Coverdesign: Andreas Hain
® 1985 "edel" records GmbH
© 1997 "edel" records GmbH
Printed and manufactured in Germany


Лог создания рипа

Disk 1

Exact Audio Copy V1.0 beta 3 from 29. August 2011
Отчёт EAC об извлечении, выполненном 18. февраля 2015, 23:40
Heinrich Schuetz / Capella Fidicinia / Symphoniae Sacrae I SWV 257-276 CD1
Дисковод: MATSHITABD-MLT UJ240ES Adapter: 2 ID: 0
Режим чтения : Достоверность
Использование точного потока : Да
Отключение кэша аудио : Да
Использование указателей C2 : Нет
Коррекция смещения при чтении : 103
Способность читать области Lead-in и Lead-out : Нет
Заполнение пропущенных сэмплов тишиной : Да
Удаление блоков с тишиной в начале и конце : Нет
При вычислениях CRC использовались нулевые сэмплы : Да
Интерфейс : Встроенный Win32-интерфейс для Win NT/2000
Обработка зазоров : Добавлено к предыдущему треку
Выходной формат : Пользовательский кодировщик
Выбранный битрейт : 1024 kBit/s
Качество : Высокий
Добавление ID3-тега : Нет
Утилита сжатия : C:\Program Files (x86)\Exact Audio Copy\Flac\flac.exe
Дополнительные параметры : -V -8 -T "Genre=%genre%" -T "Artist=%artist%" -T "Title=%title%" -T "Album=%albumtitle%" -T "Date=%year%" -T "Tracknumber=%tracknr%" -T "Comment=%comment%" %source%
TOC извлечённого CD
Трек | Старт | Длительность | Начальный сектор | Конечный сектор
---------------------------------------------------------------------
1 | 0:00.00 | 5:21.20 | 0 | 24094
2 | 5:21.20 | 4:35.47 | 24095 | 44766
3 | 9:56.67 | 4:20.30 | 44767 | 64296
4 | 14:17.22 | 4:12.18 | 64297 | 83214
5 | 18:29.40 | 4:28.22 | 83215 | 103336
6 | 22:57.62 | 5:12.73 | 103337 | 126809
7 | 28:10.60 | 5:36.72 | 126810 | 152081
8 | 33:47.57 | 4:39.15 | 152082 | 173021
9 | 38:26.72 | 3:55.10 | 173022 | 190656
10 | 42:22.07 | 2:53.65 | 190657 | 203696
Трек 1
Имя файла C:\Users\Nornore\Documents\EAC rips\SchuetzSymphoniaeSacreaIGruess\Disk 1\01. Cantabo Domino in vita mea SWV 260.wav
Длина предзазора 0:00:02.00
Пиковый уровень 73.0 %
Скорость извлечения 0.8 X
Качество трека 100.0 %
CRC теста FEA64BAB
CRC копии FEA64BAB
Точное извлечение (достоверность 1) [B13527F0] (AR v1)
Копирование... OK
Трек 2
Имя файла C:\Users\Nornore\Documents\EAC rips\SchuetzSymphoniaeSacreaIGruess\Disk 1\02. O quam tu pulchra es (Prima pars) SWV 265.wav
Длина предзазора 0:00:04.23
Пиковый уровень 65.6 %
Скорость извлечения 0.8 X
Качество трека 100.0 %
CRC теста 93C1A011
CRC копии 93C1A011
Точное извлечение (достоверность 1) [1717302B] (AR v1)
Копирование... OK
Трек 3
Имя файла C:\Users\Nornore\Documents\EAC rips\SchuetzSymphoniaeSacreaIGruess\Disk 1\03. Veni de Libano, amica mea (Secunda pars) SWV 266.wav
Пиковый уровень 69.1 %
Скорость извлечения 0.9 X
Качество трека 100.0 %
CRC теста 8D7EFFC3
CRC копии 8D7EFFC3
Точное извлечение (достоверность 1) [436D5D5B] (AR v1)
Копирование... OK
Трек 4
Имя файла C:\Users\Nornore\Documents\EAC rips\SchuetzSymphoniaeSacreaIGruess\Disk 1\04. Paratum cor meum, Deus (mit Discantus) SWV 257.wav
Длина предзазора 0:00:04.22
Пиковый уровень 98.9 %
Скорость извлечения 1.0 X
Качество трека 100.0 %
CRC теста 6E683407
CRC копии 6E683407
Точное извлечение (достоверность 1) [88C7C929] (AR v1)
Копирование... OK
Трек 5
Имя файла C:\Users\Nornore\Documents\EAC rips\SchuetzSymphoniaeSacreaIGruess\Disk 1\05. Domine, labia mea aperies SWV 271.wav
Длина предзазора 0:00:05.20
Пиковый уровень 78.0 %
Скорость извлечения 1.1 X
Качество трека 100.0 %
CRC теста E031729D
CRC копии E031729D
Точное извлечение (достоверность 1) [32690BCD] (AR v1)
Копирование... OK
Трек 6
Имя файла C:\Users\Nornore\Documents\EAC rips\SchuetzSymphoniaeSacreaIGruess\Disk 1\06. Fili mi Absalon SWV 269.wav
Длина предзазора 0:00:05.10
Пиковый уровень 72.1 %
Скорость извлечения 1.2 X
Качество трека 100.0 %
CRC теста EEB61A21
CRC копии EEB61A21
Точное извлечение (достоверность 1) [E7B6BB4A] (AR v1)
Копирование... OK
Трек 7
Имя файла C:\Users\Nornore\Documents\EAC rips\SchuetzSymphoniaeSacreaIGruess\Disk 1\07. In lectulo per noctes (Prima pars) SWV 272.wav
Длина предзазора 0:00:05.13
Пиковый уровень 86.8 %
Скорость извлечения 1.1 X
Качество трека 99.9 %
CRC теста CD12F648
CRC копии CD12F648
Точное извлечение (достоверность 1) [8A257A6C] (AR v1)
Копирование... OK
Трек 8
Имя файла C:\Users\Nornore\Documents\EAC rips\SchuetzSymphoniaeSacreaIGruess\Disk 1\08. Invenerunt me custodes Civitatis (Secunda pars) SWV 273.wav
Пиковый уровень 88.5 %
Скорость извлечения 1.2 X
Качество трека 99.9 %
CRC теста A7D141BA
CRC копии A7D141BA
Точное извлечение (достоверность 1) [09A869F7] (AR v1)
Копирование... OK
Трек 9
Имя файла C:\Users\Nornore\Documents\EAC rips\SchuetzSymphoniaeSacreaIGruess\Disk 1\09. Buccinate in neomenia tuba (Prima pars) SWV 275.wav
Длина предзазора 0:00:05.35
Пиковый уровень 86.1 %
Скорость извлечения 1.3 X
Качество трека 100.0 %
CRC теста FA2D4604
CRC копии FA2D4604
Точное извлечение (достоверность 1) [E7618B25] (AR v1)
Копирование... OK
Трек 10
Имя файла C:\Users\Nornore\Documents\EAC rips\SchuetzSymphoniaeSacreaIGruess\Disk 1\10. Jubilate Deo in chordis et organo (Secunda pars) SWV 276.wav
Пиковый уровень 69.5 %
Скорость извлечения 1.3 X
Качество трека 100.0 %
CRC теста 67797506
CRC копии 67797506
Точное извлечение (достоверность 1) [E31F7986] (AR v1)
Копирование... OK
Все треки извлечены точно
Ошибок не произошло
Конец отчёта
==== Контрольная сумма отчёта CF2E0FA3B299C6DD647A7958F07B54531C286670ACFAAC02427F69562BAA4BF4 ====

Disk 2

[pre]Exact Audio Copy V1.0 beta 3 from 29. August 2011
Отчёт EAC об извлечении, выполненном 19. февраля 2015, 8:41
Heinrich Schuetz / Capella Fidicinia / Symphoniae Sacrae I SWV 257-276 CD2
Дисковод: MATSHITABD-MLT UJ240ES Adapter: 2 ID: 0
Режим чтения : Достоверность
Использование точного потока : Да
Отключение кэша аудио : Да
Использование указателей C2 : Нет
Коррекция смещения при чтении : 103
Способность читать области Lead-in и Lead-out : Нет
Заполнение пропущенных сэмплов тишиной : Да
Удаление блоков с тишиной в начале и конце : Нет
При вычислениях CRC использовались нулевые сэмплы : Да
Интерфейс : Встроенный Win32-интерфейс для Win NT/2000
Обработка зазоров : Добавлено к предыдущему треку
Выходной формат : Пользовательский кодировщик
Выбранный битрейт : 1024 kBit/s
Качество : Высокий
Добавление ID3-тега : Нет
Утилита сжатия : C:\Program Files (x86)\Exact Audio Copy\Flac\flac.exe
Дополнительные параметры : -V -8 -T "Genre=%genre%" -T "Artist=%artist%" -T "Title=%title%" -T "Album=%albumtitle%" -T "Date=%year%" -T "Tracknumber=%tracknr%" -T "Comment=%comment%" %source%
TOC извлечённого CD
Трек | Старт | Длительность | Начальный сектор | Конечный сектор
---------------------------------------------------------------------
1 | 0:00.00 | 5:40.07 | 0 | 25506
2 | 5:40.07 | 3:46.35 | 25507 | 42491
3 | 9:26.42 | 3:38.33 | 42492 | 58874
4 | 13:05.00 | 4:55.67 | 58875 | 81066
5 | 18:00.67 | 5:37.03 | 81067 | 106344
6 | 23:37.70 | 5:14.22 | 106345 | 129916
7 | 28:52.17 | 8:23.03 | 129917 | 167644
8 | 37:15.20 | 3:25.72 | 167645 | 183091
9 | 40:41.17 | 3:38.73 | 183092 | 199514
10 | 44:20.15 | 7:49.12 | 199515 | 234701
11 | 52:09.27 | 3:41.03 | 234702 | 251279
Трек 1
Имя файла C:\Users\Nornore\Documents\EAC rips\SchuetzSymphoniaeSacreaIGruess\Disk 2\01. Jubilate Deo omnis terra, SWV262.wav
Длина предзазора 0:00:02.00
Пиковый уровень 99.0 %
Скорость извлечения 0.8 X
Качество трека 100.0 %
CRC теста 52EEBF7A
CRC копии 52EEBF7A
Точное извлечение (достоверность 1) [C16C1106] (AR v1)
Копирование... OK
Трек 2
Имя файла C:\Users\Nornore\Documents\EAC rips\SchuetzSymphoniaeSacreaIGruess\Disk 2\02. Anima mea liquefacta est (Prima pars), SWV263.wav
Длина предзазора 0:00:04.05
Пиковый уровень 64.5 %
Скорость извлечения 0.8 X
Качество трека 100.0 %
CRC теста A22A667D
CRC копии A22A667D
Точное извлечение (достоверность 1) [8EC2B0AE] (AR v1)
Копирование... OK
Трек 3
Имя файла C:\Users\Nornore\Documents\EAC rips\SchuetzSymphoniaeSacreaIGruess\Disk 2\03. Adjuro vos, filiae Jerusalem (Secunda pars), SWV 264.wav
Пиковый уровень 56.4 %
Скорость извлечения 0.8 X
Качество трека 99.9 %
CRC теста D556A98F
CRC копии D556A98F
Точное извлечение (достоверность 1) [56FE64AA] (AR v1)
Копирование... OK
Трек 4
Имя файла C:\Users\Nornore\Documents\EAC rips\SchuetzSymphoniaeSacreaIGruess\Disk 2\04. Exsultavit cor meum in Domino, SWV258.wav
Длина предзазора 0:00:04.50
Пиковый уровень 69.1 %
Скорость извлечения 1.0 X
Качество трека 100.0 %
CRC теста 66BCAD33
CRC копии 66BCAD33
Точное извлечение (достоверность 1) [48520029] (AR v1)
Копирование... OK
Трек 5
Имя файла C:\Users\Nornore\Documents\EAC rips\SchuetzSymphoniaeSacreaIGruess\Disk 2\05. In te, Domine, speravi, SWV259.wav
Длина предзазора 0:00:04.35
Пиковый уровень 36.2 %
Скорость извлечения 1.1 X
Качество трека 100.0 %
CRC теста 5F64EAB6
CRC копии 5F64EAB6
Точное извлечение (достоверность 1) [57095286] (AR v1)
Копирование... OK
Трек 6
Имя файла C:\Users\Nornore\Documents\EAC rips\SchuetzSymphoniaeSacreaIGruess\Disk 2\06. Veni, dilecte mi, in hortum meum, SWV274.wav
Длина предзазора 0:00:04.63
Пиковый уровень 70.7 %
Скорость извлечения 1.2 X
Качество трека 100.0 %
CRC теста EC167A78
CRC копии EC167A78
Точное извлечение (достоверность 1) [336B3AFA] (AR v1)
Копирование... OK
Трек 7
Имя файла C:\Users\Nornore\Documents\EAC rips\SchuetzSymphoniaeSacreaIGruess\Disk 2\07. Venite ad me omnes qui laboratis, SWV261.wav
Длина предзазора 0:00:04.17
Пиковый уровень 71.2 %
Скорость извлечения 1.3 X
Качество трека 100.0 %
CRC теста 3013D921
CRC копии 3013D921
Точное извлечение (достоверность 1) [6F73F583] (AR v1)
Копирование... OK
Трек 8
Имя файла C:\Users\Nornore\Documents\EAC rips\SchuetzSymphoniaeSacreaIGruess\Disk 2\08. Benedicam Dominum in omni tempore (Prima pars), SWV267.wav
Длина предзазора 0:00:05.03
Пиковый уровень 69.8 %
Скорость извлечения 1.3 X
Качество трека 100.0 %
CRC теста DB7F5FA9
CRC копии DB7F5FA9
Точное извлечение (достоверность 1) [31AF4E5E] (AR v1)
Копирование... OK
Трек 9
Имя файла C:\Users\Nornore\Documents\EAC rips\SchuetzSymphoniaeSacreaIGruess\Disk 2\09. Exquisivi Dominum et exaudivit me (Secunda pars), SWV268.wav
Пиковый уровень 67.6 %
Скорость извлечения 1.3 X
Качество трека 100.0 %
CRC теста F7F20BF7
CRC копии F7F20BF7
Точное извлечение (достоверность 1) [F4C64530] (AR v1)
Копирование... OK
Трек 10
Имя файла C:\Users\Nornore\Documents\EAC rips\SchuetzSymphoniaeSacreaIGruess\Disk 2\10. Attendite, popule meus, legem meam, SWV270.wav
Длина предзазора 0:00:06.00
Пиковый уровень 59.3 %
Скорость извлечения 1.5 X
Качество трека 100.0 %
CRC теста C4930ADA
CRC копии C4930ADA
Точность не определена (достоверность 1) [740E3228], AccurateRip вернул [B585E60F] (AR v2)
Копирование... OK
Трек 11
Имя файла C:\Users\Nornore\Documents\EAC rips\SchuetzSymphoniaeSacreaIGruess\Disk 2\11. Paratum cor meum, Deus (mit Tenor), SWV257.wav
Длина предзазора 0:00:05.27
Пиковый уровень 62.0 %
Скорость извлечения 1.5 X
Качество трека 100.0 %
CRC теста 2AF0E6AF
CRC копии 2AF0E6AF
Точность не определена (достоверность 1) [087C7035], AccurateRip вернул [E9011FB9] (AR v2)
Копирование... OK
9 трек(и) скопированы точно
2 трек(и) не удалось проверить на точность
Некоторые треки не прошли проверку на точность
Ошибок не произошло
Конец отчёта
==== Контрольная сумма отчёта 0E6EB925DF39BA74744EC34CE21848E8EAD8398B21966FD44B6327AF6B4A6628 ====

Содержание индексной карты (.CUE)

Disk 1

REM GENRE classical
REM DATE 1985
REM DISCID 890A9B0A
REM COMMENT "ExactAudioCopy v1.0b3"
CATALOG 0000000000000
PERFORMER "Heinrich Schuetz / Capella Fidicinia"
TITLE "Symphoniae Sacrae I SWV 257-276 CD1"
FILE "01. Cantabo Domino in vita mea SWV 260.wav" WAVE
TRACK 01 AUDIO
TITLE "Cantabo Domino in vita mea SWV 260"
PERFORMER "Heinrich Schuetz / Capella Fidicinia"
INDEX 01 00:00:00
TRACK 02 AUDIO
TITLE "O quam tu pulchra es (Prima pars) SWV 265"
PERFORMER "Heinrich Schuetz / Capella Fidicinia"
INDEX 00 05:16:72
FILE "02. O quam tu pulchra es (Prima pars) SWV 265.wav" WAVE
INDEX 01 00:00:00
FILE "03. Veni de Libano, amica mea (Secunda pars) SWV 266.wav" WAVE
TRACK 03 AUDIO
TITLE "Veni de Libano, amica mea (Secunda pars) SWV 266"
PERFORMER "Heinrich Schuetz / Capella Fidicinia"
INDEX 01 00:00:00
TRACK 04 AUDIO
TITLE "Paratum cor meum, Deus (mit Discantus) SWV 257"
PERFORMER "Heinrich Schuetz / Capella Fidicinia"
INDEX 00 04:16:08
FILE "04. Paratum cor meum, Deus (mit Discantus) SWV 257.wav" WAVE
INDEX 01 00:00:00
TRACK 05 AUDIO
TITLE "Domine, labia mea aperies SWV 271"
PERFORMER "Heinrich Schuetz / Capella Fidicinia"
INDEX 00 04:06:73
FILE "05. Domine, labia mea aperies SWV 271.wav" WAVE
INDEX 01 00:00:00
TRACK 06 AUDIO
TITLE "Fili mi Absalon SWV 269"
PERFORMER "Heinrich Schuetz / Capella Fidicinia"
INDEX 00 04:23:12
FILE "06. Fili mi Absalon SWV 269.wav" WAVE
INDEX 01 00:00:00
TRACK 07 AUDIO
TITLE "In lectulo per noctes (Prima pars) SWV 272"
PERFORMER "Heinrich Schuetz / Capella Fidicinia"
INDEX 00 05:07:60
FILE "07. In lectulo per noctes (Prima pars) SWV 272.wav" WAVE
INDEX 01 00:00:00
FILE "08. Invenerunt me custodes Civitatis (Secunda pars) SWV 273.wav" WAVE
TRACK 08 AUDIO
TITLE "Invenerunt me custodes Civitatis (Secunda pars) SWV 273"
PERFORMER "Heinrich Schuetz / Capella Fidicinia"
INDEX 01 00:00:00
TRACK 09 AUDIO
TITLE "Buccinate in neomenia tuba (Prima pars) SWV 275"
PERFORMER "Heinrich Schuetz / Capella Fidicinia"
INDEX 00 04:33:55
FILE "09. Buccinate in neomenia tuba (Prima pars) SWV 275.wav" WAVE
INDEX 01 00:00:00
FILE "10. Jubilate Deo in chordis et organo (Secunda pars) SWV 276.wav" WAVE
TRACK 10 AUDIO
TITLE "Jubilate Deo in chordis et organo (Secunda pars) SWV 276"
PERFORMER "Heinrich Schuetz / Capella Fidicinia"
INDEX 01 00:00:00

Disk 2

[pre]REM GENRE Classical
REM DATE 1985
REM DISCID 900D160B
REM COMMENT "ExactAudioCopy v1.0b3"
CATALOG 0000000000000
PERFORMER "Heinrich Schuetz / Capella Fidicinia"
TITLE "Symphoniae Sacrae I SWV 257-276 CD2"
FILE "01. Jubilate Deo omnis terra, SWV262.wav" WAVE
TRACK 01 AUDIO
TITLE "Jubilate Deo omnis terra, SWV262"
PERFORMER "Heinrich Schuetz / Capella Fidicinia"
INDEX 01 00:00:00
TRACK 02 AUDIO
TITLE "Anima mea liquefacta est (Prima pars), SWV263"
PERFORMER "Heinrich Schuetz / Capella Fidicinia"
INDEX 00 05:36:02
FILE "02. Anima mea liquefacta est (Prima pars), SWV263.wav" WAVE
INDEX 01 00:00:00
FILE "03. Adjuro vos, filiae Jerusalem (Secunda pars), SWV 264.wav" WAVE
TRACK 03 AUDIO
TITLE "Adjuro vos, filiae Jerusalem (Secunda pars), SWV 264"
PERFORMER "Heinrich Schuetz / Capella Fidicinia"
INDEX 01 00:00:00
TRACK 04 AUDIO
TITLE "Exsultavit cor meum in Domino, SWV258"
PERFORMER "Heinrich Schuetz / Capella Fidicinia"
INDEX 00 03:33:58
FILE "04. Exsultavit cor meum in Domino, SWV258.wav" WAVE
INDEX 01 00:00:00
TRACK 05 AUDIO
TITLE "In te, Domine, speravi, SWV259"
PERFORMER "Heinrich Schuetz / Capella Fidicinia"
INDEX 00 04:51:32
FILE "05. In te, Domine, speravi, SWV259.wav" WAVE
INDEX 01 00:00:00
TRACK 06 AUDIO
TITLE "Veni, dilecte mi, in hortum meum, SWV274"
PERFORMER "Heinrich Schuetz / Capella Fidicinia"
INDEX 00 05:32:15
FILE "06. Veni, dilecte mi, in hortum meum, SWV274.wav" WAVE
INDEX 01 00:00:00
TRACK 07 AUDIO
TITLE "Venite ad me omnes qui laboratis, SWV261"
PERFORMER "Heinrich Schuetz / Capella Fidicinia"
INDEX 00 05:10:05
FILE "07. Venite ad me omnes qui laboratis, SWV261.wav" WAVE
INDEX 01 00:00:00
TRACK 08 AUDIO
TITLE "Benedicam Dominum in omni tempore (Prima pars), SWV267"
PERFORMER "Heinrich Schuetz / Capella Fidicinia"
INDEX 00 08:18:00
FILE "08. Benedicam Dominum in omni tempore (Prima pars), SWV267.wav" WAVE
INDEX 01 00:00:00
FILE "09. Exquisivi Dominum et exaudivit me (Secunda pars), SWV268.wav" WAVE
TRACK 09 AUDIO
TITLE "Exquisivi Dominum et exaudivit me (Secunda pars), SWV268"
PERFORMER "Heinrich Schuetz / Capella Fidicinia"
INDEX 01 00:00:00
TRACK 10 AUDIO
TITLE "Attendite, popule meus, legem meam, SWV270"
PERFORMER "Heinrich Schuetz / Capella Fidicinia"
INDEX 00 03:32:73
FILE "10. Attendite, popule meus, legem meam, SWV270.wav" WAVE
INDEX 01 00:00:00
TRACK 11 AUDIO
TITLE "Paratum cor meum, Deus (mit Tenor), SWV257"
PERFORMER "Heinrich Schuetz / Capella Fidicinia"
INDEX 00 07:43:60
FILE "11. Paratum cor meum, Deus (mit Tenor), SWV257.wav" WAVE
INDEX 01 00:00:00
[teatrix.ru].t20504.torrent 
Торрент: Зарегистрирован [ 2016-03-20 00:02 ] · 4EA4C0BBADEA232844EBD0EE28AA6B61B284AA97

Скачать .torrent

Скачать

26 KB

Статус: проверено
Скачан: 0 раз
Размер: 510 MB
terms.php



Быстрый ответ

Имя:

      
Для отправки сообщений необходимо включить JavaScript
Показать сообщения:    

Текущее время: 04-Дек 23:23

Часовой пояс: UTC + 3


Вы можете начинать темы
Вы можете отвечать на сообщения
Вы не можете редактировать свои сообщения
Вы не можете удалять свои сообщения
Вы не можете голосовать в опросах
Вы не можете прикреплять файлы к сообщениям
Вы можете скачивать файлы