[TR24][OF] Maria Callas - Recital: Lyric and Coloratura Arias [1954] (Cilea, Giordano, Catalani, Boito, Rossini, Meyerbeer, Delibes, Verdi) - 2014 (Classical, Opera)

DL-List and Torrent activity [Update пиров]
Size:  490 MB   |    Registered:  7 months 4 days   |    Completed:  0 times

Seeder not seen: Never



Maria Callas
Lyric and Coloratura Arias
- Год издания: 2014
Жанр: Classical, Opera
Издатель (лейбл): Warner Classics
Продолжительность: 00:48:51
Наличие сканов: Covers, Digital Booklet
- -
Francesco Cilèa (1866-1950)
Adriana Lecouvreur
01. Act 1: "Ecco: respiro appena...Io son l'umile ancella" (Adriana Lecouvreur) (3:50)
02. Act 4: "Poveri fiori" (Adriana Lecouvreur) (3:12)
Umberto Giordano (1867-1948)
Andrea Chénier, Act 3
03. "La mamma morta" (Maddalena) (4:53)
Alfredo Catalani (1854-1893)
La Wally, Act 1
04. "Ebben?...Ne andrò lontana" (Wally) (4:51)
Arrigo Boïto (1842-1918)
Mefistofele, Act 3
05. "L'altra notte" (Elena) (7:27)
Gioachino Rossini (1792-1868)
Il barbiere di Siviglia, Act 1
06. "Una voce poco fa" (Rosina) (6:52)
Giacomo Meyerbeer (1791-1864)
Dinorah, '(Le) pardon de Ploërmel', Act 2
07. "Ombre légère" (Dinorah- Shadow Song) - Sung in Italian (5:41)
Léo Delibes (1936-1891)
Lakmé, Act 2
08. "Où va la jeune indoue" (Lakmé - Bell Song) (8:05)
Giuseppe Verdi (1813-1901)
I vespri Siciliani, Act 5
09. "Mercè, dilette amiche" (Elena) (4:00)

Maria Callas - soprano
Philharmonia Orchestra
Tullio Serafin - conductor
Recorded: 17, 18, 20 & 21.IX.1954, Watford Town Hall

Контейнер: FLAC (*.flac)
Тип рипа: tracks
Разрядность: 24bit / 96kHz
Количество каналов: 2.0
-О релизе
Early Callas
As this recital amply demonstrates, Maria Callas encompassed an extraordinary range of roles. She is as convincing in the pinpoint coloratura of Lakmé’s ‘Bel lSong’ (‘Her chromatic scale is beautifully done and she sails up to the region known as in alt with the greatest ease,’ said Gramophone) as in the sweeping, richly-coloured lines of Maddalena’s ‘La mamma morta’ from Andrea Chénier, famously and movingly featured on the soundtrack of the 1993 Hollywood film Philadelphia.‘There is great tenderness and simplicity, deep emotion,and the most lovely moulding of the vocal phrases,’wrote Gramophone, ‘Madame Callas’s characterisations… are nothing less than superb, and altogether there is some of her finest singing yet recorded.’

ОтчётыДинамический диапазон

foobar2000 1.2.2 / Dynamic Range Meter 1.1.1
log date: 2015-03-02 13:34:31
Analyzed: Maria Callas, Philharmonia Orchestra, Tullio Serafin / Recital: Lyric and Coloratura Arias (1954)
DR Peak RMS Duration Track
DR12 -1.97 dB -20.13 dB 3:50 ?-Adriana Lecouvreur, Act 1: "Ecco: respiro appena...Io son l'umile ancella" (Adriana Lecouvreur)
DR8 -1.71 dB -17.24 dB 3:12 ?-Adriana Lecouvreur, Act 4: "Poveri fiori" (Adriana Lecouvreur)
DR10 -0.67 dB -16.36 dB 4:53 ?-Andrea Chénier, Act 3: "La mamma morta" (Maddalena)
DR9 -1.49 dB -16.35 dB 4:51 ?-La Wally, Act 1: "Ebben?...Ne andrò lontana" (Wally)
DR11 -1.74 dB -19.83 dB 7:27 ?-Mefistofele, Act 3: "L'altra notte" (Elena)
DR10 -1.68 dB -18.70 dB 6:52 ?-Il barbiere di Siviglia, Act 1: "Una voce poco fa" (Rosina)
DR13 -0.83 dB -19.21 dB 5:41 ?-Dinorah, '(Le) pardon de Ploërmel', Act 2: "Ombre légère" (Dinorah- Shadow Song) - Sung in Italian
DR14 -0.61 dB -20.17 dB 8:05 ?-Lakmé, Act 2: "Où va la jeune indoue" (Lakmé - Bell Song)
DR10 -0.82 dB -16.88 dB 4:00 ?-I vespri Siciliani, Act 5: "Mercè, dilette amiche" (Elena)
Number of tracks: 9
Official DR value: DR11
Samplerate: 96000 Hz
Channels: 2
Bits per sample: 24
Bitrate: 1389 kbps
Codec: FLAC

Скриншот спектра частот

Доп. информация

При скачивании, если необходимо, переименуйте папку, в которой будет находиться альбомБольшая просьба к скачавшим поддерживать раздачу! Помогайте другим, ведь вам тоже может понадобиться помощь!Не забываем говорить "Спасибо"!Комментарии приветствуются!
Maria Callas Hi-Res
Torrent: Registered [ 2016-03-20 00:02 ] · A6E995BB6062853B35B6F6572DEB8F726E3B007B

Download .torrent


21 KB

Status: checked
Completed: 0 times
Size: 490 MB

Quick Reply


Heads necessary to send messages to enable JavaScript
Display posts:    

Current time is: 24-Oct 06:27

All times are UTC + 3

You can post new topics in this forum
You can reply to topics in this forum
You cannot edit your posts in this forum
You cannot delete your posts in this forum
You cannot vote in polls in this forum
You cannot attach files in this forum
You can download files in this forum