Ален Делон: интервью каналу RTF / Cinepanorama: Alain Delon RTF Interview (Дениз Бийон / Denise Billon) [1963, документальный, кинематограф, DVDRip-AVC] Original (Fre) + Sub Rus (Lisok)


Статистика раздачи [Обновить пиров]
Размер:  89 MB   |    Зарегистрирован:  8 месяцев 21 день   |    Скачан:  0 раз

Полного источника не было: Никогда

 
   
 
 
 

[Цитировать]

Ален Делон: интервью каналу RTF
Cinépanorama: Alain Delon RTF Interview- Дата/Год выпуска: 1963
Страна: Франция
Жанр: документальный, кинематограф
Продолжительность: 00:07:19
Перевод: Субтитры
Русские субтитры: естьФормат субтитров: softsub (SRT)
Доп. информация о субтитрах: перевод Lisok , инициатор Алексей Проскуряков ака Aleks Punk
Оригинальная аудиодорожка: французский
Режиссер: Дениз Бийон / Denise Billon
Описание: Интервью у Алена Делона во время съемок фильма "Мелодии из подвала" реж. Анри Вернея берет журналист, киновед, писатель и режиссер Франсуа Шале / François Chalais, в честь которого ежегодно вручается приз за заслуги в журналистике на кинофестивале в Каннах.
Доп. информация: Интервью вышло на 3-х-дисковом DVD-сборнике "Reflets de Cannes & Cinépanorama" в 2011 году. За предоставленный материал благодарность Aleks Punk.

качество: DVDRip-AVC
формат: MKV
Видео: AVC (H.264), 640x480 (4:3), 25 fps, ~1500 kbps avg, 0.195 bit/pixel
Аудио: AC3, 2 ch, 48 kHz, ~192.00 kbps avg

Пример субтитров

1
00:00:04,714 --> 00:00:05,885
Их тут нет.
2
00:00:05,880 --> 00:00:07,485
- Нет, я просто жду. Съёмка идёт?
- Нет.
3
00:00:07,600 --> 00:00:09,971
- Да, идёт.
- Я не вижу красной точки.
4
00:00:10,057 --> 00:00:13,371
- Кажется, люди там вас смущали?
- Нет-нет.
5
00:00:13,400 --> 00:00:15,914
- Вы их больше не замечаете?
- Нет-нет.
6
00:00:15,910 --> 00:00:19,228
Ален Делон, говорят,
вы не очень любите интервью?
7
00:00:19,220 --> 00:00:24,114
Нет. Я бы сказал, не просто интервью,
а телевизионные интервью.
8
00:00:24,110 --> 00:00:28,028
- А! Почему? Вы боитесь?
- Потому что я боюсь, я очень волнуюсь.
9
00:00:28,020 --> 00:00:31,371
Меня это смущает, сковывает и
у меня не получается быть естественным.
10
00:00:31,742 --> 00:00:36,828
- На самом деле это немного...
- Замечу, я никогда не участвовал в телепередачах.
11
00:00:36,820 --> 00:00:40,114
Ни в прямом эфире,
ни в записи.
12
00:00:40,110 --> 00:00:43,600
Мне кажется, я никогда не смогу.
Хотя в телефильме я однажды снялся.
13
00:00:43,600 --> 00:00:46,942
Но это - совсем другое.
- Не знал, что вы такой злопамятный.
14
00:00:47,228 --> 00:00:51,000
Обычно в жизни вы ведь
вполне уютно себя чувствуете?
15
00:00:51,200 --> 00:00:55,285
- Разве вы хорошо знаете меня в жизни?
- Кто знает кого?
16
00:00:55,280 --> 00:00:59,914
Меня. В жизни.
Меня в жизни или на экране?
17
00:01:00,285 --> 00:01:03,000
Думаю, я лучше знаю
вас на экране.
18
00:01:03,000 --> 00:01:06,628
И вы даёте ощущение, что вы -
человек почти без проблем.
19
00:01:06,620 --> 00:01:09,628
У вас что, много проблем?
- Нет, не очень. Нет.
20
00:01:09,620 --> 00:01:13,942
Да и это было бы плохо воспринято, если бы я стал
говорить, что в моём возрасте у меня много проблем.

MediaInfo

Общее
Уникальный идентификатор : 188426853804107743427716224445495314045 (0x8DC1B1275B91A2DBB74213CE265F067D)
Полное имя : E:\My Torrents 2\[apreder]Cinepanorama_Alain_Delon_RTF_Interview(16.05.1961)DVDRip.mkv
Формат : Matroska
Версия формата : Version 2
Размер файла : 88,8 Мбайт
Продолжительность : 7 м. 19 с.
Общий поток : 1694 Кбит/сек
Дата кодирования : UTC 2015-03-02 15:22:50
Программа кодирования : mkvmerge v7.7.0 ('Six Voices') 64bit built on Feb 28 2015 23:39:33
Библиотека кодирования : libebml v1.3.1 + libmatroska v1.4.2
Видео
Идентификатор : 1
Формат : AVC
Формат/Информация : Advanced Video Codec
Профиль формата : High@L4.1
Параметр CABAC формата : Да
Параметр ReFrames формата : 16 кадров
Идентификатор кодека : V_MPEG4/ISO/AVC
Продолжительность : 7 м. 19 с.
Битрейт : 1500 Кбит/сек
Ширина : 640 пикселей
Высота : 480 пикселей
Соотношение сторон : 4:3
Режим частоты кадров : Постоянный
Частота кадров : 25,000 кадров/сек
Цветовое пространство : YUV
Субдискретизация насыщенности : 4:2:0
Битовая глубина : 8 бит
Тип развёртки : Прогрессивная
Бит/(Пиксели*Кадры) : 0.195
Размер потока : 77,0 Мбайт (87%)
Библиотека кодирования : x264 core 144 r2525 40bb568
Настройки программы : cabac=1 / ref=16 / deblock=1:-1:-1 / analyse=0x3:0x133 / me=umh / subme=10 / psy=1 / psy_rd=1.00:0.15 / mixed_ref=1 / me_range=24 / chroma_me=1 / trellis=2 / 8x8dct=1 / cqm=0 / deadzone=21,11 / fast_pskip=1 / chroma_qp_offset=-3 / threads=6 / lookahead_threads=1 / sliced_threads=0 / nr=0 / decimate=1 / interlaced=0 / bluray_compat=0 / constrained_intra=0 / bframes=8 / b_pyramid=2 / b_adapt=2 / b_bias=0 / direct=3 / weightb=1 / open_gop=0 / weightp=2 / keyint=250 / keyint_min=25 / scenecut=40 / intra_refresh=0 / rc_lookahead=60 / rc=2pass / mbtree=1 / bitrate=1500 / ratetol=1.0 / qcomp=0.60 / qpmin=0 / qpmax=69 / qpstep=4 / cplxblur=20.0 / qblur=0.5 / vbv_maxrate=62500 / vbv_bufsize=78125 / nal_hrd=none / filler=0 / ip_ratio=1.40 / aq=1:1.00
Default : Да
Forced : Нет
Аудио
Идентификатор : 2
Формат : AC-3
Формат/Информация : Audio Coding 3
Расширение режима : CM (complete main)
Параметр Endianness формата : Big
Идентификатор кодека : A_AC3
Продолжительность : 7 м. 19 с.
Вид битрейта : Постоянный
Битрейт : 192 Кбит/сек
Каналы : 2 канала
Расположение каналов : Front: L R
Частота : 48,0 КГц
Битовая глубина : 16 бит
Метод сжатия : С потерями
Размер потока : 10,1 Мбайт (11%)
Язык : French
Default : Да
Forced : Нет
Текст
Идентификатор : 3
Формат : UTF-8
Идентификатор кодека : S_TEXT/UTF8
Идентификатор кодека/Информация : UTF-8 Plain Text
Язык : Russian
Default : Да
Forced : Нет

Скриншоты

Резервные скриншоты

-[2'150]
[teatrix.ru].t20507.torrent 
Торрент: Зарегистрирован [ 2016-03-20 00:01 ] · AC0D33AA8F8D180AEB630E212B7235021C20CC5E

Скачать .torrent

Скачать

14 KB

Статус: проверено
Скачан: 0 раз
Размер: 89 MB
terms.php



Показать сообщения:    

Текущее время: 10-Дек 00:14

Часовой пояс: UTC + 3


Вы не можете начинать темы
Вы не можете отвечать на сообщения
Вы не можете редактировать свои сообщения
Вы не можете удалять свои сообщения
Вы не можете голосовать в опросах
Вы не можете прикреплять файлы к сообщениям
Вы можете скачивать файлы