[TR24][OF] Antonio Vivaldi - L'Estro Armonico (Harmonic Inspiration), Op. 3 (Rachel Podger, Brecon Baroque) - 2015 (Classical)


Статистика раздачи [Обновить пиров]
Размер:  4.13 GB   |    Зарегистрирован:  8 месяцев 15 дней   |    Скачан:  1 раз

Полного источника не было: 1 месяц 12 дней

 
   
 
 
 

[Цитировать]

Antonio Vivaldi
L'Estro Armonico
Rachel Podger & Brecon Baroque
- Год издания: 2015
Жанр: Classical
Издатель (лейбл): Channel Classics Records
Продолжительность: 01:36:58
Релизер: pr3ss
Наличие сканов: Sleeve, Digital Booklet
- -Antonio Vivaldi (1678-1741)
Brecon Baroque:
Rachel Podger violin/director
Bojan Čičić violin (solo nos. 2 & 11)
Johannes Pramsohler violin (solo nos. 5 & 8)
Sabine Stoffer violin
Janes Rogers viola
Ricardo Cuende Isuskiza viola
Alison McGillivray violoncello
Jan Spencer violone
Daniele Caminiti theorbo
David Miller theorbo/guitar
Marcin Świątkiewicz harpsichord/organ
-Recording location
St John the Evangelist Church, Upper Norwood, London
Recording dates
February and September 2014
-Контейнер: FLAC (*.flac)
Тип рипа: tracks
Разрядность: 24bit / 192kHz
Количество каналов: 2.0

-
Альбом в lossless
Треклист-L'Estro Armonico (Harmonic Inspiration), Op. 3 (1711)
Concerto No. 1 in D Major
01. Allegro (3:01)
02. Largo e spiccato (2:15)
03. Allegro (2:32)
Concerto No. 2 in G minor
04. Adagio e spiccato Allegro (3:51)
05. Larghetto (2:32)
06. Allegro (2:45)
Concerto No. 3 in G Major
07. Allegro (2:17)
08. Largo (2:09)
09. Allegro (2:20)
Concerto No. 4 in E Minor
10. Andante (1:46)
11. Allegro assai (2:46)
12. Adagio - Allegro (2:12)
Concerto No. 5 in A Major
13. Allegro (2:52)
14. Largo (1:24)
15. Allegro (2:57)
Concerto No. 6 in A minor
16. Allegro (2:57)
17. Largo (1:54)
18. Presto (2:30)
Concerto No. 7 in F Major
19. Andante (2:25)
20. Adagio (1:13)
21. Adagio - Allegro (4:45)
Concerto No. 8 in A Minor
22. Allegro (3:14)
23. Larghetto e spiritoso (2:46)
24. Allegro (2:59)
Concerto No. 9 in D Major
25. Allegro (2:04)
26. Larghetto (2:34)
27. Allegro (2:14)
Concerto No. 10 in B Minor
28. Allegro (3:26)
29. Largo (1:57)
30. allegro (3:28)
Concerto No. 11 in D Minor
31. Allegro - Adagio (4:01)
32. Largo e spiccato (2:20)
33. Allegro (2:31)
Concerto No. 12 in E Major
34. Allegro (3:24)
35. Largo (3:37)
36. Allegro (2:58)
-

О релизе


Vivaldi has, above all, always struck me as wonderfully entertaining. His musical shapes and figurations seem to exist in order to please and surprise. Always supremely idiomatic (although sometimes idiosyncratically specific), there’s also that sense of directing a sensation with a particular person in mind. In the 12 Concertos which comprise ‘L’Estro Armonico’, these qualities abound, not least because Vivaldi appears to have taken extraordinary trouble to exhibit his craft to the world, almost as a way of ‘setting out a stall’ for how a new 18thcentury concerto could now be written in the right hands. Underpinning Vivaldi’s flair, originality and meticulous attention to detail is an engine room of momentum: raw energy is regularly the order of the day with muscular layers of semiquavers and rapid acrobatics passed between the various configurations of soloists. These pieces are truly exhilarating to play and perform and their fresh impact never fails to hit some target or other, judging by the reaction of a live audience. Not often do you witness four violins trying to outdo each other! During Brecon Baroque’s concerts preceding the recording, the rapierlike turns in musical conversations between the four parts always seemed to lead to added expectation and excitement – all the more effective because of the contrasted moments of deep melancholy which Vivaldi some how manages to express irrespective of mode; like Schubert, a major key can be just as poignant and affecting as a minor in a conceit of sadness or loss. For example, in the slow movements of Concertos nos. 9 and 12 in D and E major respectively, there is an exquisite tenderness in his writing, something fragile, innocent and temporary; I catch myself wondering for whom these moments were created… I would like to thank all my wonderful colleagues for these many intense moments of energy, tenderness and joy while performing and recording these fantastic concertos – works which intrigued Bach and from which he mined so many of the very finest Vivaldian attributes.
-- Rachel Podger

ОтчётыДинамический диапазон

foobar2000 1.2.2 / Dynamic Range Meter 1.1.1
log date: 2015-03-03 12:41:46
--------------------------------------------------------------------------------
Analyzed: Rachel Podger, Brecon Baroque / Vivaldi: L’Estro Armonico
--------------------------------------------------------------------------------
DR Peak RMS Duration Track
--------------------------------------------------------------------------------
DR13 -3.14 dB -21.68 dB 3:01 ?-Concerto No. 1 in D Major - Allegro
DR13 -5.18 dB -23.67 dB 2:15 ?-Concerto No. 1 in D Major - Largo e spiccato
DR14 -2.05 dB -20.95 dB 2:32 ?-Concerto No. 1 in D Major - Allegro
DR15 -0.31 dB -21.12 dB 3:51 ?-Concerto No. 2 in G minor - Adagio e spiccato Allegro
DR14 -3.17 dB -21.21 dB 2:32 ?-Concerto No. 2 in G minor - Larghetto
DR13 -3.55 dB -19.73 dB 2:45 ?-Concerto No. 2 in G minor - Allegro
DR13 -0.76 dB -19.00 dB 2:17 ?-Concerto No. 3 in G Major - Allegro
DR14 -3.86 dB -23.09 dB 2:09 ?-Concerto No. 3 in G Major - Largo
DR14 -3.89 dB -21.32 dB 2:20 ?-Concerto No. 3 in G Major - Allegro
DR15 -0.44 dB -21.29 dB 1:46 ?-Concerto No. 4 in E Minor - Andante
DR14 -2.02 dB -21.20 dB 2:46 ?-Concerto No. 4 in E Minor - Allegro assai
DR14 -3.53 dB -21.46 dB 2:12 ?-Concerto No. 4 in E Minor - Adagio - Allegro
DR14 -2.18 dB -21.28 dB 2:52 ?-Concerto No. 5 in A Major - Allegro
DR13 -10.42 dB -30.68 dB 1:24 ?-Concerto No. 5 in A Major - Largo
DR12 -2.56 dB -19.48 dB 2:57 ?-Concerto No. 5 in A Major - Allegro
DR13 -5.04 dB -22.34 dB 2:57 ?-Concerto No. 6 in A minor - Allegro
DR14 -9.11 dB -27.46 dB 1:54 ?-Concerto No. 6 in A minor - Largo
DR13 -4.86 dB -23.10 dB 2:30 ?-Concerto No. 6 in A minor - Presto
DR13 -3.57 dB -21.84 dB 2:25 ?-Concerto No. 7 in F Major - Andante
DR13 -2.80 dB -20.84 dB 1:13 ?-Concerto No. 7 in F Major - Adagio
DR13 -2.68 dB -20.94 dB 4:45 ?-Concerto No. 7 in F Major - Adagio - Allegro
DR13 -3.17 dB -21.24 dB 3:14 ?-Concerto No. 8 in A Minor - Allegro
DR13 -8.09 dB -26.40 dB 2:46 ?-Concerto No. 8 in A Minor - Larghetto e spiritoso
DR14 -1.44 dB -20.31 dB 2:59 ?-Concerto No. 8 in A Minor - Allegro
DR13 -4.21 dB -23.13 dB 2:04 ?-Concerto No. 9 in D Major - Allegro
DR11 -9.41 dB -26.41 dB 2:34 ?-Concerto No. 9 in D Major - Larghetto
DR11 -7.19 dB -23.58 dB 2:14 ?-Concerto No. 9 in D Major - Allegro
DR13 -1.92 dB -21.29 dB 3:26 ?-Concerto No. 10 in B Minor - Allegro
DR14 -2.13 dB -23.80 dB 1:57 ?-Concerto No. 10 in B Minor - Largo
DR14 -1.73 dB -20.88 dB 3:28 ?-Concerto No. 10 in B Minor - allegro
DR12 -1.99 dB -20.42 dB 4:01 ?-Concerto No. 11 in D Minor - Allegro - Adagio
DR13 -10.33 dB -27.53 dB 2:20 ?-Concerto No. 11 in D Minor - Largo e spiccato
DR13 -3.59 dB -21.11 dB 2:31 ?-Concerto No. 11 in D Minor - Allegro
DR13 -4.31 dB -21.74 dB 3:24 ?-Concerto No. 12 in E Major - Allegro
DR13 -6.86 dB -26.54 dB 3:37 ?-Concerto No. 12 in E Major - Largo
DR14 -0.53 dB -22.68 dB 2:58 ?-Concerto No. 12 in E Major - Allegro
--------------------------------------------------------------------------------
Number of tracks: 36
Official DR value: DR13
Samplerate: 192000 Hz
Channels: 2
Bits per sample: 24
Bitrate: 6041 kbps
Codec: FLAC
================================================================================

Скриншот спектра частот

Доп. информация

При скачивании, если необходимо, переименуйте папку, в которой будет находиться альбомБольшая просьба к скачавшим поддерживать раздачу! Помогайте другим, ведь вам тоже может понадобиться помощь!Не забываем говорить "Спасибо"!Комментарии приветствуются!
[teatrix.ru].t20509.torrent 
Торрент: Зарегистрирован [ 2016-03-20 00:02 ] · 700B26AD6216D646EED8E49142DA401942547A5C

Скачать .torrent

Скачать

24 KB

Статус: проверено
Скачан: 1 раз
Размер: 4.13 GB
terms.php



Быстрый ответ

Имя:

      
Для отправки сообщений необходимо включить JavaScript
Показать сообщения:    

Текущее время: 04-Дек 21:25

Часовой пояс: UTC + 3


Вы можете начинать темы
Вы можете отвечать на сообщения
Вы не можете редактировать свои сообщения
Вы не можете удалять свои сообщения
Вы не можете голосовать в опросах
Вы не можете прикреплять файлы к сообщениям
Вы можете скачивать файлы