Бесы. У Тихона. Ненапечатанная глава (Даниил Мунтян) [2014 г., Молдова, драма, CAMRip] Театральный факультет Славянского университета г. Кишинёв


 

[Цитировать]

Бесы. У Тихона. Ненапечатанная глава Название театра: Театральный факультет Славянского университета г. Кишинёв.
Год выпуска: 2014.
Страна: Молдова .
Жанр: драма.
Продолжительность: 01:15:15.
Язык: русский.
Режиссер: Даниил Мунтян.
Действующие лица и исполнители:
Ставрогин - Станислав Бабогло,
Шатов - Даниил Решетко,
Верховенский - Дмитрий Дубина,
Отец Тихон - Милен Келя,
Хромоножка - Антонина Кочаровская,
Матреша - Елена Вивич.
О спектакле:
Постановка студентов театрального факультета Славянского университета (г. Кишинёв) по ненапечатанной главе из романа "Бесы" .
Эта глава должна была находиться между главами "Иван-Царевич" и "Степана Трофимовича описали" во второй части. Она была набрана для журнала "Русский Вестник", но, как свидетельствует Н. Страхов, "одну сцену из Ставрогина (растление и пр.) Катков не хотел печатать, но Достоевский здесь ее читал многим" (письмо Страхова к Л. Толстому от 28 ноября 1883 г. "Толстовский музей" т. II, С. Петербург, 1914, стр. 308).
Первоначально, в рукописи, эта глава нумеровалась девятой и должна была заключать вторую часть; затем, в корректуре, она была переименована в первую главу, и, вероятно, ею должна была начаться третья часть, напечатанная в журнале "Русский Вестник" 1872 г., и начинавшаяся в журнале со следующей главы романа: "Степана Трофимовича описали" (в позднейших изданиях глава девятая второй части).

Дополнительная информация:
Релиз
Рип sharky.

Качество видео:...CAMRip
Формат:.................AVI
Видео:..704x528 (1.33:1), 25 fps, XviD build 47 ~1876 kbps avg, 0.20 bit/pixel
Аудио:..48 kHz, AC3 Dolby Digital, 2/0 (L,R) ch, ~192 kbps

Отчет MI

Общее
Полное имя : Besy.U.Tihona.Nenapechatannaya.glava_TF.Slavyanskogo.universiteta.2014.XviD.CAMRip.fenixclub.avi
Формат : AVI
Формат/Информация : Audio Video Interleave
Размер файла : 1,09 Гбайт
Продолжительность : 1 ч. 15 м.
Общий поток : 2078 Кбит/сек
Программа кодирования : VirtualDubMod 1.5.10.2 (build 2540/release)
Библиотека кодирования : VirtualDubMod build 2540/release
Видео
Идентификатор : 0
Формат : MPEG-4 Visual
Профиль формата : Advanced Simple@L5
Параметр BVOP формата : 1
Параметр QPel формата : Нет
Параметр GMC формата : Без точки перехода
Параметр матрицы формата : Default (H.263)
Идентификатор кодека : XVID
Идентификатор кодека/Подсказка : XviD
Продолжительность : 1 ч. 15 м.
Битрейт : 1877 Кбит/сек
Ширина : 704 пикселя
Высота : 528 пикселей
Соотношение сторон : 4:3
Частота кадров : 25,000 кадров/сек
Цветовое пространство : YUV
Субдискретизация насыщенности : 4:2:0
Битовая глубина : 8 бит
Тип развёртки : Прогрессивная
Метод сжатия : С потерями
Бит/(Пиксели*Кадры) : 0.202
Размер потока : 1010 Мбайт (90%)
Библиотека кодирования : XviD 1.2.0.dev47 (UTC 2006-11-01)
Аудио
Идентификатор : 1
Формат : AC-3
Формат/Информация : Audio Coding 3
Расширение режима : CM (complete main)
Параметр Endianness формата : Big
Идентификатор кодека : 2000
Продолжительность : 1 ч. 15 м.
Вид битрейта : Постоянный
Битрейт : 192 Кбит/сек
Каналы : 2 канала
Расположение каналов : Front: L R
Частота : 48,0 КГц
Битовая глубина : 16 бит
Метод сжатия : С потерями
Размер потока : 103 Мбайт (9%)
Выравнивание : Разделение по промежуткам
Продолжительность промежутка : 40 мс. (1,00 видеокадр)
Время предзагрузки промежутка : 500 мс.

Скриншоты

Альтернативный хост




Показать сообщения:    

Текущее время: 11-Дек 16:53

Часовой пояс: UTC + 3


Вы не можете начинать темы
Вы не можете отвечать на сообщения
Вы не можете редактировать свои сообщения
Вы не можете удалять свои сообщения
Вы не можете голосовать в опросах
Вы не можете прикреплять файлы к сообщениям
Вы не можете скачивать файлы