Олег Видов. Всадник с головой (Михаил Ананьев) [2013, Документальный, биография, искусство, SATRip]


Статистика раздачи [Обновить пиров]
Размер:  461 MB   |    Зарегистрирован:  8 месяцев 21 день   |    Скачан:  0 раз

Полного источника не было: Никогда

 
   
 
 
 

[Цитировать]

Олег Видов. Всадник с головой
Дата/Год выпуска: 2013
Страна: Россия, ООО "Студия 8"
Жанр: Документальный, биография, искусство
Продолжительность: 00:39:24
Перевод: Не требуется
Русские субтитры: нет
Режиссер: Михаил Ананьев
Описание: К Олегу Видову быстро пришёл оглушительный успех. Фильмы с его участием входили в пятёрку самых кассовых лент. Киоски "Союзпечати" за день продавали открыток с портретом Видова больше, чем газет "Правда". Режиссёры приглашали сниматься, в том числе и за рубежом. Но выехать из страны становилось всё труднее – чиновники вставляли ему палки в колёса. И тогда Видов решил бежать из страны...
качество: SATRip
формат: AVI
Видео: 704x400 (1.76:1), 25 fps, XviD build 50 ~1497 kbps avg, 0.21 bit/pixel
Аудио: 48 kHz, MPEG Layer 3, 2 ch, ~128.00 kbps avg

MediaInfo

Complete name                            : C:\Users\Home\Desktop\Razdacha\Олег Видов.Всадник с головой.2013.SATRip.avi
Format : AVI
Format/Info : Audio Video Interleave
File size : 461 MiB
Duration : 39mn 24s
Overall bit rate : 1 635 Kbps
Writing application : VirtualDubMod 1.5.10.3 | www.virtualdub-fr.org || (build 2550/release)
Writing library : VirtualDubMod build 2550/release
Video
ID : 0
Format : MPEG-4 Visual
Format profile : Advanced Simple@L5
Format settings, BVOP : 2
Format settings, QPel : No
Format settings, GMC : No warppoints
Format settings, Matrix : Default (MPEG)
Codec ID : XVID
Codec ID/Hint : XviD
Duration : 39mn 24s
Bit rate : 1 497 Kbps
Width : 704 pixels
Height : 400 pixels
Display aspect ratio : 16:9
Frame rate : 25.000 fps
Color space : YUV
Chroma subsampling : 4:2:0
Bit depth : 8 bits
Scan type : Progressive
Compression mode : Lossy
Bits/(Pixel*Frame) : 0.213
Stream size : 422 MiB (92%)
Writing library : XviD 1.2.1 (UTC 2008-12-04)
Audio
ID : 1
Format : MPEG Audio
Format version : Version 1
Format profile : Layer 3
Codec ID : 55
Codec ID/Hint : MP3
Duration : 39mn 24s
Bit rate mode : Constant
Bit rate : 128 Kbps
Channel count : 2 channels
Sampling rate : 48.0 KHz
Compression mode : Lossy
Stream size : 36.1 MiB (8%)
Alignment : Aligned on interleaves
Interleave, duration : 40 ms (1.00 video frame)
Interleave, preload duration : 504 ms
Writing library : LAME3.99r
Encoding settings : -m s -V 4 -q 2 -lowpass 17 -b 128

Скриншоты

[teatrix.ru].t20512.torrent 
Торрент: Зарегистрирован [ 2016-03-20 00:04 ] · C0445134EED40302429785C75B9EDE8282A208B6

Скачать .torrent

Скачать

9 KB

Статус: проверено
Скачан: 0 раз
Размер: 461 MB
terms.php



Быстрый ответ

Имя:

      
Для отправки сообщений необходимо включить JavaScript
Показать сообщения:    

Текущее время: 10-Дек 08:05

Часовой пояс: UTC + 3


Вы можете начинать темы
Вы можете отвечать на сообщения
Вы не можете редактировать свои сообщения
Вы не можете удалять свои сообщения
Вы не можете голосовать в опросах
Вы не можете прикреплять файлы к сообщениям
Вы можете скачивать файлы