(Classical) Agostino Steffani - Niobe, Regina di Tebe (Gauvin, Jaroussky, Forsythe, Immler, Sheehan, Wey; Boston Early Music Festival Orchestra, O'Dette, Stubbs) - 2015, FLAC (image+.cue) lossless


 

[Цитировать]

Steffani - Niobe, Regina di Tebe (Jaroussky, Gauvin, Forsythe, Immler, Sheehan, Wey; Boston Early Music Festival Orchestra, O'Dette, Stubbs)
Жанр: Classical
Год издания диска: 2015
Издатель (лейбл): Erato
Номер по каталогу: 2564-634354
Год записи: 2014
Аудиокодек: FLAC
Тип рипа: image+.cue
Битрейт аудио: lossless
Продолжительность: CD1:79'03; CD2:68'57; CD3:75'44
Источник: собственный рип
Наличие сканов в содержимом раздачи: да (только обложки)
Исполнители:
Niobe - Karina Gauvin
Anfione - Philippe Jaroussky
Manto - Amanda Forsythe
Tiresia - Christian Immler
Clearte - Aaron Sheehan
Creonte - Terry Wey
Poliferno - Jesse Blumberg
Tiberino - Colin Balzer
Nerea - José Lemos
Boston Early Music Festival Orchestra
Paul O’Dette and Stephen Stubbs, Musical Directors

Треклист:

CD1
01. Sinfonia
02. Atto I. Scena 1. Recitativo: Venga Clearte
03. Scena 1. Duetto: Sollievo del mio seno
04. Scena 2. Recitativo: Ecco à piè di chi impera
05. Scena 2. Aria: Miratemi begl'occhi
06. Scena 3. Recitativo: Splendetemi d'intorno
07. Scena 3. Aria: È felice il tuo cor
08. Scena 4. Recitativo: Che sento?
09. Scena 4. Aria: Quasi tutte
10. Scena 5. Recitativo: Rio destin che pretendi
11. Scena 5. Aria: Son amante, e sempre peno
12. Scena 6. Recitativo: Della famosa Tebe
13. Scena 6. Aria: Alba essulti, e il Lazio goda
14. Scena 7. Hunting calls / Recitativo: Suon di lontana caccia
15. Scena 7. Ritornello
16. Scena 7. Recitativo: Oh valor; oh virtute
17. Scena 7. Aria: Se la vita à me donasti
18. Scena 8. Recitativo: Figlia ove sei
19. Scena 8. Aria: Amor t'attese al varco
20. Scena 9. Recitativo: Svelò fatal la piaga
21. Scena 9. Aria: Tu non sai che sia diletto
22. Scena 10. Recitativo: Oh d'amor troppo ignaro
23. Scena 10. Aria: Vuoi ch'io parli, parlerò
24. Scena 10. Ritornello
25. Scena 11. Recitativo: Dormi Creonte, e in tanto
26. Scena 11. Aria: Dove sciolti à volo i vanni
27. Scena 11. Recitativo: Sù, per goder ben tosto
28. Scena 11. Aria: Nuovo soglio, e nuova bella / Scena 12 [omitted]
29. Scena 13. Accompagnato: Dell'alma stanca
30. Scena 13. Aria: Sfere amiche
31. Scena 14. Recitativo: Anfion mio desio
32. Scena 14. Aria: Vorrei sempre vagheggiarti
33. Scena 15. Recitativo: Eccola
34. Scena 16. Recitativo: E tu qual gelo, ò sasso
35. Scena 17. Aria: C'hò da morir tacendo
36. Scena 18. Recitativo: Forsennato vaneggia
37. Scena 18. Aria: Che agli assalti degli amanti / Ritornello
38. Scena 19. Recitativo: Ecco Tebe
39. Scena 19. Aria: Anderei fin nell'Inferno
40. Scena 20. Recitativo: Oh di Lico infelice
41. Scena 20. Aria: Fiera Aletto
42. Scena 21. Fanfare / Recitativo: Popoli o voi, ch'un tempo
43. Scena 21. Aria: Come padre, e come dio
44. Scena 21. Recitativo: Mà che miro?
45. Scena 22. Aria: Assistetemi
46. Scena 22. Recitativo: Niobe ove giungi
47. Scena 23. Recitativo: O d'insano ardimento
48. Scena 23. Duetto: Mia fiamma, mio ardore
CD2
01. Scena 23. Recitativo: Tu con lingua si sciolta / Scena 24. Recitativo: Numi datemi aita
02. Scena 24. Aria: Di strali, e fulmini
03. Scena 25. Recitativo: Discaccia il duolo
04. Scena 25. Aria: Nel mio seno à poco à poco
05. Scena 26. Recitativo: Oh stravaganza
06. Scena 26. Aria: Quanto sospirerai
07. Scena 26. Ballo dei cacciatori. Rigaudon & Gigue
08. Atto II. Sinfonia / Scena 1. Recitativo: Ritornate à gli abissi
09. Scena 1. Aria: Del mio ben occhi adorati
10. Scena 2. Recitativo; Il gran portento amici
11. Scena 2. Aria: Voglio servir fedel
12. Scena 3. Recitativo: Vien al fine la bella
13. Scena 3. Aria: Qui la dea cieca volante
14. Scena 4. Recitativo: Giunge il re
15. Scena 4. Aria: Ascendo alle stelle
16. Scena 4. Recitativo: Con fronti humiliate
17. Scena 4. Ballo. Entrée, Rondeau
18. Scena 4. Aria: Numi tartarei
19. Scena 5. Recitativo: Ove son? chi m'aita?
20. Scena 5. Aria: Dal mio petto o pianti uscite
21. Scena 6. Aria: Confuse potenze
22. Scena 6. Recitativo: Ove quasi furente
23. Scena 7. Recitativo: Fuggirò questo Cielo
24. Scena 7. Aria: Il tuo squardo o bella mia
25. Scena 8. Recitativo: Odi come diverso
26. Scena 8. Aria: Tu ci pensasti poco
27. Scena 9. Recitativo: Chi sei, dove mi guidi?
28. Scena 9. Aria: Stringo al seno un nume amante
29. Scena 10. Recitativo: Mira: già il dio guerriero
30. Scena 10. Aria: Lascio l'armi, e cedo il campo
31. Scena 10. Recitativo: Agevolò l'impresa
32. Scena 10. Duetto: T'abbraccio mia diva
33. Scena 10. Aria: Gioite, godete
34. Scena 11. Recitativo: Tù mi laceri il core
35. Scena 11. Aria: De numi la legge
36. Scena 12. Recitativo: Et ancor neghittosi
37. Scena 12. Aria: Trà bellici carmi
CD3
01. Scena 12. Ritornello
02. Scena 13. Recitativo. De tebani pastori
03. Scena 13. Aria. Non mi far pianger sempre
04. Scena 14. Recitativo. Ratto sen và
05. Scena 14. Aria. Hò troppo parlato
06. Scena 15. Recitativo. Mi commove à pietade
07. Scena 15. Aria. Ci sei colto mio cor
08. Scena 16. Recitativo. Oh che dolci concetti
09. Scena 16. Aria. Questi giovani moderni
10. Scena 16. Ballo de' pastori. Rondeau, Menuet, Sarabande, Rigaudon 1 & 2
11. Atto III. Sinfonia
12. Scena 1. Recitativo. Delle celesti soglie
13. Scena 1. Aria. Amami, e vederai
14. Scena 1. Recitativo. Mà da qual nube interna
15. Scena 2. Recitativo. Fuggi Creonte
16. Scena 2. Aria. Luci belle
17. Scena 3. Recitativo e Arioso. Qui, dove muto, e solo
18. Scena 3. Aria. Contro il Ciel
19. Scena 4. Recitativo. Nell'Egeo tempestoso
20. Scena 4. Aria. Hò perduta la speranza
21. Scena 5. Entrée
22. Scena 5. Recitativo. Con eterni legami
23. Scena 5. Aria. Hor ch'è mio quel vago labro
24. Scena 6. Recitativo. Foste al fine pietosi
25. Scena 6. Aria. Chiudetevi miei lumi
26. Scena 6. Recitativo. Mi si toglia da gli occhi
27. Scena 7. Recitativo. Senza indugio Clearte
28. Scena 8. Recitativo. Vinti sono i celesti
29. Scena 8. Aria. In mezzo al armi
30. Scena 9. Recitativo. Affè ch'è un brutto intrico
31. Scena 9. Aria. Che alla fè di donne amanti
32. Scena 10. Entrée
33. Scena 10. Aria. Tutta gioia, e tutta riso / Accompagnato. Ma lasso
34. Scena 11. Recitativo. Fin dove m'inseguite / Scena 12. Fermati
35. Scena 12. Aria. Spira già nel proprio sangue
36. Scena 12. Recitativo. Inopportuno arrivo
37. Scena 12. Aria. Funeste imagini
38. Scena 13. Marcia di Creonte
39. Scena 13. Recitativo. Doma è già Tebe
40. Scena 14. Recitativo. Hor voi felici amanti
41. Scena 14. Aria. Di palme, e d'allori
42. Scena 14. Ballo di soldati festeggianti. Chaconne

Log EAC:LOG CD01:

Exact Audio Copy V1.0 beta 3 from 29. August 2011
EAC extraction logfile from 27. February 2015, 15:54
Paul O’Dette and Stephen Stubbs / Steffani - Niobe, regina di Tebe CD1
Used drive : HL-DT-STDVDRAM GH24NS95 Adapter: 0 ID: 0
Read mode : Secure
Utilize accurate stream : Yes
Defeat audio cache : Yes
Make use of C2 pointers : No
Read offset correction : 6
Overread into Lead-In and Lead-Out : No
Fill up missing offset samples with silence : Yes
Delete leading and trailing silent blocks : No
Null samples used in CRC calculations : Yes
Used interface : Native Win32 interface for Win NT & 2000
Used output format : User Defined Encoder
Selected bitrate : 128 kBit/s
Quality : High
Add ID3 tag : No
Command line compressor : C:\Program Files (x86)\Exact Audio Copy\Flac\flac.exe
Additional command line options : -V -8 -T "Date=%year%" -T "Genre=%genre%" %source%
TOC of the extracted CD
Track | Start | Length | Start sector | End sector
---------------------------------------------------------
1 | 0:00.00 | 2:29.24 | 0 | 11198
2 | 2:29.24 | 2:18.03 | 11199 | 21551
3 | 4:47.27 | 3:18.50 | 21552 | 36451
4 | 8:06.02 | 1:33.62 | 36452 | 43488
5 | 9:39.64 | 2:48.50 | 43489 | 56138
6 | 12:28.39 | 1:25.68 | 56139 | 62581
7 | 13:54.32 | 2:18.24 | 62582 | 72955
8 | 16:12.56 | 0:43.13 | 72956 | 76193
9 | 16:55.69 | 1:15.62 | 76194 | 81880
10 | 18:11.56 | 0:39.16 | 81881 | 84821
11 | 18:50.72 | 2:48.58 | 84822 | 97479
12 | 21:39.55 | 0:39.28 | 97480 | 100432
13 | 22:19.08 | 1:03.46 | 100433 | 105203
14 | 23:22.54 | 0:44.06 | 105204 | 108509
15 | 24:06.60 | 0:23.28 | 108510 | 110262
16 | 24:30.13 | 0:38.17 | 110263 | 113129
17 | 25:08.30 | 1:50.67 | 113130 | 121446
18 | 26:59.22 | 1:38.73 | 121447 | 128869
19 | 28:38.20 | 1:15.21 | 128870 | 134515
20 | 29:53.41 | 1:30.27 | 134516 | 141292
21 | 31:23.68 | 1:41.40 | 141293 | 148907
22 | 33:05.33 | 0:50.68 | 148908 | 152725
23 | 33:56.26 | 1:48.40 | 152726 | 160865
24 | 35:44.66 | 1:43.39 | 160866 | 168629
25 | 37:28.30 | 1:32.65 | 168630 | 175594
26 | 39:01.20 | 2:00.63 | 175595 | 184657
27 | 41:02.08 | 0:31.17 | 184658 | 186999
28 | 41:33.25 | 2:27.08 | 187000 | 198032
29 | 44:00.33 | 3:09.72 | 198033 | 212279
30 | 47:10.30 | 4:51.41 | 212280 | 234145
31 | 52:01.71 | 0:34.09 | 234146 | 236704
32 | 52:36.05 | 2:15.17 | 236705 | 246846
33 | 54:51.22 | 1:18.44 | 246847 | 252740
34 | 56:09.66 | 1:03.28 | 252741 | 257493
35 | 57:13.19 | 2:46.36 | 257494 | 269979
36 | 59:59.55 | 0:36.05 | 269980 | 272684
37 | 60:35.60 | 2:04.05 | 272685 | 281989
38 | 62:39.65 | 0:35.57 | 281990 | 284671
39 | 63:15.47 | 1:23.55 | 284672 | 290951
40 | 64:39.27 | 0:59.08 | 290952 | 295384
41 | 65:38.35 | 2:17.43 | 295385 | 305702
42 | 67:56.03 | 1:45.59 | 305703 | 313636
43 | 69:41.62 | 3:01.27 | 313637 | 327238
44 | 72:43.14 | 0:16.72 | 327239 | 328510
45 | 73:00.11 | 0:41.45 | 328511 | 331630
46 | 73:41.56 | 1:14.14 | 331631 | 337194
47 | 74:55.70 | 1:49.20 | 337195 | 345389
48 | 76:45.15 | 2:16.29 | 345390 | 355618
Range status and errors
Selected range
Filename C:\Program Files (x86)\Exact Audio Copy\Flac\Steffani - Niobe, regina di Tebe CD1.wav
Peak level 98.8 %
Extraction speed 8.4 X
Range quality 99.9 %
Test CRC 29FBDD26
Copy CRC 29FBDD26
Copy OK
No errors occurred
AccurateRip summary
Track 1 not present in database
Track 2 not present in database
Track 3 not present in database
Track 4 not present in database
Track 5 not present in database
Track 6 not present in database
Track 7 not present in database
Track 8 not present in database
Track 9 not present in database
Track 10 not present in database
Track 11 not present in database
Track 12 not present in database
Track 13 not present in database
Track 14 not present in database
Track 15 not present in database
Track 16 not present in database
Track 17 not present in database
Track 18 not present in database
Track 19 not present in database
Track 20 not present in database
Track 21 not present in database
Track 22 not present in database
Track 23 not present in database
Track 24 not present in database
Track 25 not present in database
Track 26 not present in database
Track 27 not present in database
Track 28 not present in database
Track 29 not present in database
Track 30 not present in database
Track 31 not present in database
Track 32 not present in database
Track 33 not present in database
Track 34 not present in database
Track 35 not present in database
Track 36 not present in database
Track 37 not present in database
Track 38 not present in database
Track 39 not present in database
Track 40 not present in database
Track 41 not present in database
Track 42 not present in database
Track 43 not present in database
Track 44 not present in database
Track 45 not present in database
Track 46 not present in database
Track 47 not present in database
Track 48 not present in database
None of the tracks are present in the AccurateRip database
End of status report
==== Log checksum 19468F7FAAA93827F872565B49DBF768442D0EFEE12976AD942C3C07F77631F5 ====

LOG CD02:

Exact Audio Copy V1.0 beta 3 from 29. August 2011
EAC extraction logfile from 27. February 2015, 16:18
Paul O’Dette and Stephen Stubbs / Steffani - Niobe, regina di Tebe CD2
Used drive : HL-DT-STDVDRAM GH24NS95 Adapter: 0 ID: 0
Read mode : Secure
Utilize accurate stream : Yes
Defeat audio cache : Yes
Make use of C2 pointers : No
Read offset correction : 6
Overread into Lead-In and Lead-Out : No
Fill up missing offset samples with silence : Yes
Delete leading and trailing silent blocks : No
Null samples used in CRC calculations : Yes
Used interface : Native Win32 interface for Win NT & 2000
Used output format : User Defined Encoder
Selected bitrate : 128 kBit/s
Quality : High
Add ID3 tag : No
Command line compressor : C:\Program Files (x86)\Exact Audio Copy\Flac\flac.exe
Additional command line options : -V -8 -T "Date=%year%" -T "Genre=%genre%" %source%
TOC of the extracted CD
Track | Start | Length | Start sector | End sector
---------------------------------------------------------
1 | 0:00.00 | 2:16.66 | 0 | 10265
2 | 2:16.66 | 1:50.53 | 10266 | 18568
3 | 4:07.44 | 1:19.49 | 18569 | 24542
4 | 5:27.18 | 2:34.56 | 24543 | 36148
5 | 8:01.74 | 0:43.16 | 36149 | 39389
6 | 8:45.15 | 2:13.66 | 39390 | 49430
7 | 10:59.06 | 1:48.67 | 49431 | 57597
8 | 12:47.73 | 2:10.27 | 57598 | 67374
9 | 14:58.25 | 1:45.26 | 67375 | 75275
10 | 16:43.51 | 1:51.19 | 75276 | 83619
11 | 18:34.70 | 1:48.63 | 83620 | 91782
12 | 20:23.58 | 1:11.29 | 91783 | 97136
13 | 21:35.12 | 2:09.68 | 97137 | 106879
14 | 23:45.05 | 3:06.70 | 106880 | 120899
15 | 26:52.00 | 1:23.30 | 120900 | 127154
16 | 28:15.30 | 0:19.24 | 127155 | 128603
17 | 28:34.54 | 1:53.11 | 128604 | 137089
18 | 30:27.65 | 1:39.72 | 137090 | 144586
19 | 32:07.62 | 1:46.45 | 144587 | 152581
20 | 33:54.32 | 4:38.38 | 152582 | 173469
21 | 38:32.70 | 1:43.35 | 173470 | 181229
22 | 40:16.30 | 1:14.24 | 181230 | 186803
23 | 41:30.54 | 2:36.69 | 186804 | 198572
24 | 44:07.48 | 1:15.32 | 198573 | 204229
25 | 45:23.05 | 0:43.36 | 204230 | 207490
26 | 46:06.41 | 1:52.38 | 207491 | 215928
27 | 47:59.04 | 2:07.13 | 215929 | 225466
28 | 50:06.17 | 2:37.19 | 225467 | 237260
29 | 52:43.36 | 0:26.48 | 237261 | 239258
30 | 53:10.09 | 3:23.68 | 239259 | 254551
31 | 56:34.02 | 2:23.61 | 254552 | 265337
32 | 58:57.63 | 1:51.73 | 265338 | 273735
33 | 60:49.61 | 1:52.51 | 273736 | 282186
34 | 62:42.37 | 0:57.60 | 282187 | 286521
35 | 63:40.22 | 1:11.73 | 286522 | 291919
36 | 64:52.20 | 0:36.40 | 291920 | 294659
37 | 65:28.60 | 3:26.13 | 294660 | 310122
Range status and errors
Selected range
Filename C:\Program Files (x86)\Exact Audio Copy\Flac\Steffani - Niobe, regina di Tebe CD2.wav
Peak level 98.8 %
Extraction speed 7.9 X
Range quality 100.0 %
Test CRC 4A17A2CF
Copy CRC 4A17A2CF
Copy OK
No errors occurred
AccurateRip summary
Track 1 not present in database
Track 2 not present in database
Track 3 not present in database
Track 4 not present in database
Track 5 not present in database
Track 6 not present in database
Track 7 not present in database
Track 8 not present in database
Track 9 not present in database
Track 10 not present in database
Track 11 not present in database
Track 12 not present in database
Track 13 not present in database
Track 14 not present in database
Track 15 not present in database
Track 16 not present in database
Track 17 not present in database
Track 18 not present in database
Track 19 not present in database
Track 20 not present in database
Track 21 not present in database
Track 22 not present in database
Track 23 not present in database
Track 24 not present in database
Track 25 not present in database
Track 26 not present in database
Track 27 not present in database
Track 28 not present in database
Track 29 not present in database
Track 30 not present in database
Track 31 not present in database
Track 32 not present in database
Track 33 not present in database
Track 34 not present in database
Track 35 not present in database
Track 36 not present in database
Track 37 not present in database
None of the tracks are present in the AccurateRip database
End of status report
==== Log checksum E0FF5CEFDCF7BC7AA6203BA92E1C9AA8B89161CCB378538843F759DBF53E2AB1 ====

LOG CD03:

Exact Audio Copy V1.0 beta 3 from 29. August 2011
EAC extraction logfile from 27. February 2015, 16:46
Paul O’Dette and Stephen Stubbs / Steffani - Niobe, regina di Tebe CD3
Used drive : HL-DT-STDVDRAM GH24NS95 Adapter: 0 ID: 0
Read mode : Secure
Utilize accurate stream : Yes
Defeat audio cache : Yes
Make use of C2 pointers : No
Read offset correction : 6
Overread into Lead-In and Lead-Out : No
Fill up missing offset samples with silence : Yes
Delete leading and trailing silent blocks : No
Null samples used in CRC calculations : Yes
Used interface : Native Win32 interface for Win NT & 2000
Used output format : User Defined Encoder
Selected bitrate : 128 kBit/s
Quality : High
Add ID3 tag : No
Command line compressor : C:\Program Files (x86)\Exact Audio Copy\Flac\flac.exe
Additional command line options : -V -8 -T "Date=%year%" -T "Genre=%genre%" %source%
TOC of the extracted CD
Track | Start | Length | Start sector | End sector
---------------------------------------------------------
1 | 0:00.00 | 0:52.56 | 0 | 3955
2 | 0:52.56 | 2:04.52 | 3956 | 13307
3 | 2:57.33 | 2:41.67 | 13308 | 25449
4 | 5:39.25 | 1:36.48 | 25450 | 32697
5 | 7:15.73 | 1:43.45 | 32698 | 40467
6 | 8:59.43 | 0:57.17 | 40468 | 44759
7 | 9:56.60 | 2:11.62 | 44760 | 54646
8 | 12:08.47 | 0:25.11 | 54647 | 56532
9 | 12:33.58 | 2:36.26 | 56533 | 68258
10 | 15:10.09 | 5:43.25 | 68259 | 94008
11 | 20:53.34 | 0:48.67 | 94009 | 97675
12 | 21:42.26 | 0:50.25 | 97676 | 101450
13 | 22:32.51 | 4:20.11 | 101451 | 120961
14 | 26:52.62 | 0:33.61 | 120962 | 123497
15 | 27:26.48 | 0:55.57 | 123498 | 127679
16 | 28:22.30 | 2:59.65 | 127680 | 141169
17 | 31:22.20 | 4:03.57 | 141170 | 159451
18 | 35:26.02 | 0:48.43 | 159452 | 163094
19 | 36:14.45 | 0:56.08 | 163095 | 167302
20 | 37:10.53 | 3:14.17 | 167303 | 181869
21 | 40:24.70 | 0:58.63 | 181870 | 186282
22 | 41:23.58 | 1:29.71 | 186283 | 193028
23 | 42:53.54 | 1:22.41 | 193029 | 199219
24 | 44:16.20 | 2:05.05 | 199220 | 208599
25 | 46:21.25 | 2:05.16 | 208600 | 217990
26 | 48:26.41 | 0:08.10 | 217991 | 218600
27 | 48:34.51 | 0:38.35 | 218601 | 221485
28 | 49:13.11 | 0:29.07 | 221486 | 223667
29 | 49:42.18 | 1:32.18 | 223668 | 230585
30 | 51:14.36 | 0:25.34 | 230586 | 232494
31 | 51:39.70 | 1:34.39 | 232495 | 239583
32 | 53:14.34 | 1:13.71 | 239584 | 245129
33 | 54:28.30 | 1:29.68 | 245130 | 251872
34 | 55:58.23 | 2:14.24 | 251873 | 261946
35 | 58:12.47 | 4:00.11 | 261947 | 279957
36 | 62:12.58 | 2:53.57 | 279958 | 292989
37 | 65:06.40 | 2:17.63 | 292990 | 303327
38 | 67:24.28 | 0:56.58 | 303328 | 307585
39 | 68:21.11 | 2:07.69 | 307586 | 317179
40 | 70:29.05 | 0:50.09 | 317180 | 320938
41 | 71:19.14 | 1:42.28 | 320939 | 328616
42 | 73:01.42 | 2:40.53 | 328617 | 340669
Range status and errors
Selected range
Filename C:\Program Files (x86)\Exact Audio Copy\Flac\Steffani - Niobe, regina di Tebe CD3.wav
Peak level 98.8 %
Extraction speed 8.2 X
Range quality 100.0 %
Test CRC 7DCF4854
Copy CRC 7DCF4854
Copy OK
No errors occurred
AccurateRip summary
Track 1 not present in database
Track 2 not present in database
Track 3 not present in database
Track 4 not present in database
Track 5 not present in database
Track 6 not present in database
Track 7 not present in database
Track 8 not present in database
Track 9 not present in database
Track 10 not present in database
Track 11 not present in database
Track 12 not present in database
Track 13 not present in database
Track 14 not present in database
Track 15 not present in database
Track 16 not present in database
Track 17 not present in database
Track 18 not present in database
Track 19 not present in database
Track 20 not present in database
Track 21 not present in database
Track 22 not present in database
Track 23 not present in database
Track 24 not present in database
Track 25 not present in database
Track 26 not present in database
Track 27 not present in database
Track 28 not present in database
Track 29 not present in database
Track 30 not present in database
Track 31 not present in database
Track 32 not present in database
Track 33 not present in database
Track 34 not present in database
Track 35 not present in database
Track 36 not present in database
Track 37 not present in database
Track 38 not present in database
Track 39 not present in database
Track 40 not present in database
Track 41 not present in database
Track 42 not present in database
None of the tracks are present in the AccurateRip database
End of status report
==== Log checksum C6F36BDB295233781CC93405E5FF52D1DEF5C9B90DBF039C70260E1FED558E4B ====



Показать сообщения:    

Текущее время: 05-Дек 03:26

Часовой пояс: UTC + 3


Вы не можете начинать темы
Вы не можете отвечать на сообщения
Вы не можете редактировать свои сообщения
Вы не можете удалять свои сообщения
Вы не можете голосовать в опросах
Вы не можете прикреплять файлы к сообщениям
Вы не можете скачивать файлы