Луи де Фюнес о фильме Человек-оркестр / Louis de Funes Interview L'homme orchestra (Франс Рош / France Roche) [26.09.1970, документальный, кинематограф, IPTVRip-AVC] Original (Fre) + Sub (Rus)


Статистика раздачи [Обновить пиров]
Размер:  40 MB   |    Зарегистрирован:  8 месяцев 18 дней   |    Скачан:  0 раз

Полного источника не было: Никогда

 
   
 
 
 

[Цитировать]

Луи де Фюнес о фильме "Человек-оркестр"
Louis de Funès Interview "L'homme orchestra"- Дата/Год выпуска: 26.09.1970
Страна: Франция
Жанр: документальный, кинематограф
Продолжительность: 00:03:09
Перевод: Субтитры
Русские субтитры: есть
Формат субтитров: softsub (SRT)
Доп. информация о субтитрах: инициатор Aleks Punk
Оригинальная аудиодорожка: французский
Режиссер: Франс Рош / France Roche
Телеканал: inaОписание: Из архивов Национального института аудиовизуальных средств Франции (Institut national de l'audiovisuel).
Интервью для канала ORTF после недавней премьеры фильма "Человек-оркестр" у Луи де Фюнеса берет французская актриса, журналист, сценарист и кинокритик Франс Рош / France Roche, которая за время работы на канале Antenne 2 брала интервью у многих знаменитостей, в том числе Брижит Бардо, Кирка Дугласа, Пьера Брассёра, Жана Маре, Анни Жирардо, Симоны Синьоре, Мишеля Пикколи, Жанны Моро и других.
Доп. информация: За предоставленный материал благодарность Aleks Punk

качество: IPTVRip-AVC
формат: MKV
Видео: AVC (H.264), 640x480 (4:3), 25 fps, ~1500 kbps avg, 0.195 bit/pixel
Аудио: AC3, 2 ch, 48 kHz, ~192.00 kbps avg

Пример субтитров

1
00:00:00,780 --> 00:00:04,860
- "Человек-оркестр" - это что?
- В этом фильме я руковожу балетом.
2
00:00:04,980 --> 00:00:07,740
Вот, я там
управляю оркестром и...
3
00:00:08,100 --> 00:00:11,100
Балетом с танцовщицами...
4
00:00:11,660 --> 00:00:15,060
Я там снимаю для них виллу
5
00:00:15,180 --> 00:00:18,780
и слежу за ними, чтобы у них
не было никакого флирта, ничего.
6
00:00:36,620 --> 00:00:42,860
Я вынужден сносить моего племянника,
который на самом деле Оливье де Фюнес,
мой сын.
7
00:00:42,980 --> 00:00:45,340
Он очень такой,
знаете, красавец.
8
00:00:45,460 --> 00:00:49,020
Он соблазняет танцовщицу,
а я ...
9
00:00:49,260 --> 00:00:54,020
Все в напряжении... Я должен
зарабатывать на сцене себе на хлеб...
10
00:00:54,100 --> 00:00:58,740
Когда я выхожу, мне аплодируют человека три...
У меня 5-10 минут, чтобы завоевать публику.
11
00:00:58,860 --> 00:01:01,580
Если Луи будет на высоте -
публика покорена.
12
00:01:01,820 --> 00:01:04,100
Как с Фернанделем, как c Бурвилем -
публика в восторге!
13
00:01:04,300 --> 00:01:09,020
Есть робкие комики - тогда не получается.
- Я робкий, мне страшно, я волнуюсь...
14
00:01:09,500 --> 00:01:14,620
К тому же они - "Луи играет, это он
играет в фильме, это он"!
15
00:01:14,780 --> 00:01:18,620
- У вас в семье много музыкантов.
Вы многие годы были пианистом.
16
00:01:18,940 --> 00:01:20,580
- Пианистом, был, да.
17
00:01:21,820 --> 00:01:25,460
Да, я шлепал по клавишам,
выражаясь техническим языком.
18
00:01:25,820 --> 00:01:28,940
В барах, бистро, вечерами,
ночами...
19
00:01:29,660 --> 00:01:32,020
В американских барах
я много чего сыграл.
20
00:01:34,620 --> 00:01:40,540
Я старался подняться каждый раз
на ступеньку, каждый раз по чуть-чуть...

MediaInfo

Общее
Уникальный идентификатор : 241815382736139288827707441352932721376 (0xB5EBF2DB8BA887C28E9995B4AC0602E0)
Полное имя : E:\My Torrents 2\[apreder]Louis_de_Funes_Interview_L'homme_orchestra(26.09.1970)IPTVRip.mkv
Формат : Matroska
Версия формата : Version 2
Размер файла : 40,3 Мбайт
Продолжительность : 3 м. 19 с.
Общий поток : 1694 Кбит/сек
Дата кодирования : UTC 2015-03-04 15:30:58
Программа кодирования : mkvmerge v7.7.0 ('Six Voices') 64bit built on Feb 28 2015 23:39:33
Библиотека кодирования : libebml v1.3.1 + libmatroska v1.4.2
Видео
Идентификатор : 1
Формат : AVC
Формат/Информация : Advanced Video Codec
Профиль формата : High@L4.1
Параметр CABAC формата : Да
Параметр ReFrames формата : 16 кадров
Идентификатор кодека : V_MPEG4/ISO/AVC
Продолжительность : 3 м. 19 с.
Битрейт : 1500 Кбит/сек
Ширина : 640 пикселей
Высота : 480 пикселей
Соотношение сторон : 4:3
Режим частоты кадров : Постоянный
Частота кадров : 25,000 кадров/сек
Цветовое пространство : YUV
Субдискретизация насыщенности : 4:2:0
Битовая глубина : 8 бит
Тип развёртки : Прогрессивная
Бит/(Пиксели*Кадры) : 0.195
Размер потока : 34,9 Мбайт (87%)
Библиотека кодирования : x264 core 144 r2525 40bb568
Настройки программы : cabac=1 / ref=16 / deblock=1:-1:-1 / analyse=0x3:0x133 / me=umh / subme=10 / psy=1 / psy_rd=1.00:0.15 / mixed_ref=1 / me_range=24 / chroma_me=1 / trellis=2 / 8x8dct=1 / cqm=0 / deadzone=21,11 / fast_pskip=1 / chroma_qp_offset=-3 / threads=6 / lookahead_threads=1 / sliced_threads=0 / nr=0 / decimate=1 / interlaced=0 / bluray_compat=0 / constrained_intra=0 / bframes=8 / b_pyramid=2 / b_adapt=2 / b_bias=0 / direct=3 / weightb=1 / open_gop=0 / weightp=2 / keyint=250 / keyint_min=25 / scenecut=40 / intra_refresh=0 / rc_lookahead=60 / rc=2pass / mbtree=1 / bitrate=1500 / ratetol=1.0 / qcomp=0.60 / qpmin=0 / qpmax=69 / qpstep=4 / cplxblur=20.0 / qblur=0.5 / vbv_maxrate=62500 / vbv_bufsize=78125 / nal_hrd=none / filler=0 / ip_ratio=1.40 / aq=1:1.00
Default : Да
Forced : Нет
Аудио
Идентификатор : 2
Формат : AC-3
Формат/Информация : Audio Coding 3
Расширение режима : CM (complete main)
Параметр Endianness формата : Big
Идентификатор кодека : A_AC3
Продолжительность : 3 м. 19 с.
Вид битрейта : Постоянный
Битрейт : 192 Кбит/сек
Каналы : 2 канала
Расположение каналов : Front: L R
Частота : 48,0 КГц
Битовая глубина : 16 бит
Метод сжатия : С потерями
Размер потока : 4,57 Мбайт (11%)
Язык : French
Default : Да
Forced : Нет
Текст
Идентификатор : 3
Формат : UTF-8
Идентификатор кодека : S_TEXT/UTF8
Идентификатор кодека/Информация : UTF-8 Plain Text
Язык : Russian
Default : Да
Forced : Нет

Скриншоты

Резервные скриншоты

-[2'153]
[teatrix.ru].t20516.torrent 
Торрент: Зарегистрирован [ 2016-03-20 00:03 ] · 9B1A178515D23676A871D881F926E45D8238B49D

Скачать .torrent

Скачать

13 KB

Статус: проверено
Скачан: 0 раз
Размер: 40 MB
terms.php



Показать сообщения:    

Текущее время: 07-Дек 17:29

Часовой пояс: UTC + 3


Вы не можете начинать темы
Вы не можете отвечать на сообщения
Вы не можете редактировать свои сообщения
Вы не можете удалять свои сообщения
Вы не можете голосовать в опросах
Вы не можете прикреплять файлы к сообщениям
Вы можете скачивать файлы