(Orchestral, Vocal) Респиги - Вокальные поэмы / Ottorino Respighi - Aretusa, La Sensitiva, Il Tramonto, Quattro liriche di Gabriele d'Annunzio (Faridah Schafer-Subrata, Adriano, Slovak RSO) - 1991, FLAC (tracks+.cue) lossless


 

[Цитировать]

Ottorino Respighi - Aretusa, La Sensitiva, Il Tramonto, Quattro Liriche
Жанр: Orchestral, Vocal
Страна-производитель диска: Germany
Год издания диска: 1991
Издатель (лейбл): Marco Polo
Номер по каталогу: 8.223347
Дата записи: 1990
Аудиокодек: FLAC
Тип рипа: tracks+.cue
Битрейт аудио: lossless
Продолжительность: 74'11
Источник: скачано с
Наличие сканов в содержимом раздачи: да
Треклист:
Ottorino Respighi (1879-1936)
1. Aretusa, Poema lirico per mezzosoprano e orchestra, su versi di Persy Shelley (1911) (12:20)
2. La Sensitiva, Poema lirico per mezzosoprano e orchestra, su versi di Persy Shelley (1915) (27:05)
3. Il Tramonto, Poema lirico per mezzosoprano e orchestra, su versi di Persy Shelley (1914) (16:29)
4-7. Quattro Liriche dal Poema paradisiaco di Gabriele d'Annunzio (1920)
I. Un sogno (5:06)
II. La Najade (2:59)
III. La sera (4:01)
IV. Sopra un'aria antica (6:12)
Исполнители:
Faridah Schäfer-Subrata, mezzo-soprano
Slovak Radio Symphony Orchestra
Adriano, conductor

Лог создания рипа

X Lossless Decoder version 20140504 (147.0)
XLD extraction logfile from 2014-12-14 12:25:42 -0600
Faridah Subrata, Czecho-Slovak Radio Symphony Orchestra (Bratislava), Adriano / Aretusa; La Sensitiva; Il Tramonto; Quattro Liriche
Used drive : MATSHITA DVD-R UJ-8A8 (revision HB14)
Media type : Pressed CD
Ripper mode : XLD Secure Ripper
Disable audio cache : OK for the drive with a cache less than 1375KiB
Make use of C2 pointers : NO
Read offset correction : 102
Max retry count : 20
Gap status : Analyzed, Appended (except HTOA)
TOC of the extracted CD
Track | Start | Length | Start sector | End sector
---------------------------------------------------------
1 | 00:00:00 | 12:20:00 | 0 | 55499
2 | 12:20:00 | 27:05:00 | 55500 | 177374
3 | 39:25:00 | 16:29:00 | 177375 | 251549
4 | 55:54:00 | 05:06:00 | 251550 | 274499
5 | 61:00:00 | 02:59:00 | 274500 | 287924
6 | 63:59:00 | 04:01:00 | 287925 | 305999
7 | 68:00:00 | 06:12:63 | 306000 | 333962
List of alternate offset correction values
# | Absolute | Relative | Confidence
------------------------------------------
1 | -562 | -664 | 2
AccurateRip Summary (DiscID: 0019bd1d-0091ebc8-61116407)
Track 01 : OK (v1, confidence 2/2, with different offset)
Track 02 : OK (v1, confidence 2/2, with different offset)
Track 03 : OK (v1, confidence 2/2, with different offset)
Track 04 : OK (v1, confidence 2/2, with different offset)
Track 05 : OK (v1, confidence 2/2, with different offset)
Track 06 : OK (v1, confidence 2/2, with different offset)
Track 07 : OK (v1, confidence 2/2, with different offset)
->All tracks accurately ripped.
All Tracks
Album gain : 5.00 dB
Peak : 0.879364
Statistics
Read error : 0
Jitter error (maybe fixed) : 0
Retry sector count : 0
Damaged sector count : 0
Track 01
Filename : /Volumes/MyBook/Ottorino Respighi - Aretusa; La Sensitiva; Il Tramonto; Quattro Liriche (1991) [FLAC]/01 Aretusa.flac
Pre-gap length : 00:02:00
Track gain : 2.91 dB
Peak : 0.879364
CRC32 hash (test run) : BE5D094B
CRC32 hash : BE5D094B
CRC32 hash (skip zero) : 796B5F00
AccurateRip v1 signature : 30AA2B2E (0956F6D6 w/correction)
AccurateRip v2 signature : CE6FB5A1
->Accurately ripped with different offset (v1, confidence 2/2, offset -664)
Statistics
Read error : 0
Jitter error (maybe fixed) : 0
Retry sector count : 0
Damaged sector count : 0
Track 02
Filename : /Volumes/MyBook/Ottorino Respighi - Aretusa; La Sensitiva; Il Tramonto; Quattro Liriche (1991) [FLAC]/02 La Sensitiva.flac
Track gain : 5.97 dB
Peak : 0.809204
CRC32 hash (test run) : 892B8ED0
CRC32 hash : 892B8ED0
CRC32 hash (skip zero) : 6C0BFEFA
AccurateRip v1 signature : F45271B8 (04B8DBA0 w/correction)
AccurateRip v2 signature : 18341150
->Accurately ripped with different offset (v1, confidence 2/2, offset -664)
Statistics
Read error : 0
Jitter error (maybe fixed) : 0
Retry sector count : 0
Damaged sector count : 0
Track 03
Filename : /Volumes/MyBook/Ottorino Respighi - Aretusa; La Sensitiva; Il Tramonto; Quattro Liriche (1991) [FLAC]/03 Il Tramonto.flac
Track gain : 6.58 dB
Peak : 0.827911
CRC32 hash (test run) : 4F9EE38C
CRC32 hash : 4F9EE38C
CRC32 hash (skip zero) : 4E0F2B53
AccurateRip v1 signature : 280B1F7B (7B610303 w/correction)
AccurateRip v2 signature : 7F89C23B
->Accurately ripped with different offset (v1, confidence 2/2, offset -664)
Statistics
Read error : 0
Jitter error (maybe fixed) : 0
Retry sector count : 0
Damaged sector count : 0
Track 04
Filename : /Volumes/MyBook/Ottorino Respighi - Aretusa; La Sensitiva; Il Tramonto; Quattro Liriche (1991) [FLAC]/04 Quattro Liriche dal Poema paradisiaco di Gabriele d'Annunzio - Un sogno.flac
Track gain : 11.14 dB
Peak : 0.698242
CRC32 hash (test run) : 08E0AC66
CRC32 hash : 08E0AC66
CRC32 hash (skip zero) : 40185E80
AccurateRip v1 signature : F1CE8831 (691E4D39 w/correction)
AccurateRip v2 signature : 86E1A0B1
->Accurately ripped with different offset (v1, confidence 2/2, offset -664)
Statistics
Read error : 0
Jitter error (maybe fixed) : 0
Retry sector count : 0
Damaged sector count : 0
Track 05
Filename : /Volumes/MyBook/Ottorino Respighi - Aretusa; La Sensitiva; Il Tramonto; Quattro Liriche (1991) [FLAC]/05 Quattro Liriche dal Poema paradisiaco di Gabriele d'Annunzio - La Najade.flac
Track gain : 5.38 dB
Peak : 0.694092
CRC32 hash (test run) : 6435D567
CRC32 hash : 6435D567
CRC32 hash (skip zero) : D10E3A34
AccurateRip v1 signature : C41D81C0 (0277E9F0 w/correction)
AccurateRip v2 signature : D7385F54
->Accurately ripped with different offset (v1, confidence 2/2, offset -664)
Statistics
Read error : 0
Jitter error (maybe fixed) : 0
Retry sector count : 0
Damaged sector count : 0
Track 06
Filename : /Volumes/MyBook/Ottorino Respighi - Aretusa; La Sensitiva; Il Tramonto; Quattro Liriche (1991) [FLAC]/06 Quattro Liriche dal Poema paradisiaco di Gabriele d'Annunzio - La sera.flac
Track gain : 3.21 dB
Peak : 0.764130
CRC32 hash (test run) : FA2A9A33
CRC32 hash : FA2A9A33
CRC32 hash (skip zero) : E3E4B2A1
AccurateRip v1 signature : 6F85387C (1EF26244 w/correction)
AccurateRip v2 signature : E035FCB4
->Accurately ripped with different offset (v1, confidence 2/2, offset -664)
Statistics
Read error : 0
Jitter error (maybe fixed) : 0
Retry sector count : 0
Damaged sector count : 0
Track 07
Filename : /Volumes/MyBook/Ottorino Respighi - Aretusa; La Sensitiva; Il Tramonto; Quattro Liriche (1991) [FLAC]/07 Quattro Liriche dal Poema paradisiaco di Gabriele d'Annunzio - Sopra un'aria antica.flac
Track gain : 3.48 dB
Peak : 0.770264
CRC32 hash (test run) : 97DA7EC2
CRC32 hash : 97DA7EC2
CRC32 hash (skip zero) : 36AE864B
AccurateRip v1 signature : 3C670A4B (D1B67BCB w/correction)
AccurateRip v2 signature : 85ACD661
->Accurately ripped with different offset (v1, confidence 2/2, offset -664)
Statistics
Read error : 0
Jitter error (maybe fixed) : 0
Retry sector count : 0
Damaged sector count : 0
No errors occurred
End of status report
-----BEGIN XLD SIGNATURE-----
P0l6ohhq5YjTLPF_wzX3dhbj162dgZfL8UCfjn31GncrdSkUFU5RtF229PnFQJZbljIUk13t8uIUgCZ9t_jbtQd8KPAVXNY8Ck4sF_u
-----END XLD SIGNATURE-----

Содержание индексной карты (.CUE)

TITLE "Aretusa; La Sensitiva; Il Tramonto; Quattro Liriche"
PERFORMER "Faridah Subrata, Czecho-Slovak Radio Symphony Orchestra (Bratislava), Adriano"
REM GENRE "Classical"
REM DATE "1991"
REM DISCID 61116407
REM REPLAYGAIN_ALBUM_GAIN 5.00 dB
REM REPLAYGAIN_ALBUM_PEAK 0.879364
FILE "01 Aretusa.flac" WAVE
TRACK 01 AUDIO
TITLE "Aretusa"
PERFORMER "Faridah Subrata, Czecho-Slovak Radio Symphony Orchestra (Bratislava), Adriano"
SONGWRITER "Ottorino Respighi"
REM REPLAYGAIN_TRACK_GAIN 2.91 dB
REM REPLAYGAIN_TRACK_PEAK 0.879364
INDEX 01 00:00:00
FILE "02 La Sensitiva.flac" WAVE
TRACK 02 AUDIO
TITLE "La Sensitiva"
PERFORMER "Faridah Subrata, Czecho-Slovak Radio Symphony Orchestra (Bratislava), Adriano"
SONGWRITER "Ottorino Respighi"
REM REPLAYGAIN_TRACK_GAIN 5.97 dB
REM REPLAYGAIN_TRACK_PEAK 0.809204
INDEX 01 00:00:00
FILE "03 Il Tramonto.flac" WAVE
TRACK 03 AUDIO
TITLE "Il Tramonto"
PERFORMER "Faridah Subrata, Czecho-Slovak Radio Symphony Orchestra (Bratislava), Adriano"
SONGWRITER "Ottorino Respighi (rev. Adriano)"
REM REPLAYGAIN_TRACK_GAIN 6.58 dB
REM REPLAYGAIN_TRACK_PEAK 0.827911
INDEX 01 00:00:00
FILE "04 Quattro Liriche dal Poema paradisiaco di Gabriele d'Annunzio - Un sogno.flac" WAVE
TRACK 04 AUDIO
TITLE "Quattro Liriche dal Poema paradisiaco di Gabriele d'Annunzio - Un sogno"
PERFORMER "Faridah Subrata, Czecho-Slovak Radio Symphony Orchestra (Bratislava), Adriano"
SONGWRITER "Ottorino Respighi (arr. Adriano)"
REM REPLAYGAIN_TRACK_GAIN 11.14 dB
REM REPLAYGAIN_TRACK_PEAK 0.698242
INDEX 01 00:00:00
FILE "05 Quattro Liriche dal Poema paradisiaco di Gabriele d'Annunzio - La Najade.flac" WAVE
TRACK 05 AUDIO
TITLE "Quattro Liriche dal Poema paradisiaco di Gabriele d'Annunzio - La Najade"
PERFORMER "Faridah Subrata, Czecho-Slovak Radio Symphony Orchestra (Bratislava), Adriano"
SONGWRITER "Ottorino Respighi (arr. Adriano)"
REM REPLAYGAIN_TRACK_GAIN 5.38 dB
REM REPLAYGAIN_TRACK_PEAK 0.694092
INDEX 01 00:00:00
FILE "06 Quattro Liriche dal Poema paradisiaco di Gabriele d'Annunzio - La sera.flac" WAVE
TRACK 06 AUDIO
TITLE "Quattro Liriche dal Poema paradisiaco di Gabriele d'Annunzio - La sera"
PERFORMER "Faridah Subrata, Czecho-Slovak Radio Symphony Orchestra (Bratislava), Adriano"
SONGWRITER "Ottorino Respighi (arr. Adriano)"
REM REPLAYGAIN_TRACK_GAIN 3.21 dB
REM REPLAYGAIN_TRACK_PEAK 0.764130
INDEX 01 00:00:00
FILE "07 Quattro Liriche dal Poema paradisiaco di Gabriele d'Annunzio - Sopra un'aria antica.flac" WAVE
TRACK 07 AUDIO
TITLE "Quattro Liriche dal Poema paradisiaco di Gabriele d'Annunzio - Sopra un'aria antica"
PERFORMER "Faridah Subrata, Czecho-Slovak Radio Symphony Orchestra (Bratislava), Adriano"
SONGWRITER "Ottorino Respighi (arr. Adriano)"
REM REPLAYGAIN_TRACK_GAIN 3.48 dB
REM REPLAYGAIN_TRACK_PEAK 0.770264
INDEX 01 00:00:00
Доп. информация:
На диске представлены лучшие вокальные сочинения Респиги на стихи его любимых поэтов - Перси Шелли - 'Аретуза' (1911), 'Мимоза' (1915), 'Закат' (1914) и Габриэле д'Аннунцио - Четыре песни (1920). Сам Респиги называл их лирическими поэмами. Многое было взято из оперного жанра - традиционные речитативы, ариозо и инструментальные интермедии. При этом оркестровая партия не просто поддерживает вокальную, но и дополняет то, что не может быть сказано словами. Поэмы предвосхищают "Римскую трилогию", сочетая влияние французского импрессионизма и лирики Пуччини. Стихотворения Шелли известны у нас в переводе Бальмонта. Первое рассказывает о водной нимфе Аретузе, преследуемой речным богом Алфеем, но убегающей с помощью океана, чтобы воскреснуть в Сицилии; второе описывает жизнь чувствительного растения-недотороги мимозы в разные времена года, и наконец, третье - рассказывает о смерти двух влюбленных.
Песни на стихи д'Аннунцио будут неожиданны для слушателя. Типичные для позднего Респиги архаизмы здесь поданы в зловещем, даже болезненном аспекте. Это погружение в мир сновидений, запустения и смерти. В последней песне цитируется ария Марка Антонио Чести из "Оронтеи (1649).



Показать сообщения:    

Текущее время: 04-Дек 00:54

Часовой пояс: UTC + 3


Вы не можете начинать темы
Вы не можете отвечать на сообщения
Вы не можете редактировать свои сообщения
Вы не можете удалять свои сообщения
Вы не можете голосовать в опросах
Вы не можете прикреплять файлы к сообщениям
Вы не можете скачивать файлы