(Classical) New World Quartets: Dvorak, Barber, Gershwin, Copland, Brubeck - Brodsky Quartet - 2014, FLAC (image+.cue) lossless


 

[Цитировать]

New World Quartets: Dvořák, Barber, Gershwin, Copland, Brubeck - Brodsky Quartet
Жанр: Classical
Страна-производитель диска: UK
Год издания диска: 2014
Издатель (лейбл): Chandos Records
Номер по каталогу: CHAN 10801
Дата записи: 2013
Аудиокодек: FLAC
Тип рипа: image+.cue
Битрейт аудио: lossless
Продолжительность: 77:08
Источник: собственный рип
Наличие сканов в содержимом раздачи: да
Треклист:
Antonín Dvořák (1841 – 1904)
[1]-[4] String Quartet in F major, Op. 96 ‘The American’ (1893)
Aaron Copland (1900 – 1990)
[5]-[6] Two Pieces for String Quartet (1923 – 28)
Samuel Barber (1910 – 1981)
[7]-[9] String Quartet, Op. 11 (1936, revised 1938)
George Gershwin (1898 – 1937)
[10] Lullaby for String Quartet (c. 1920)
Aaron Copland
[11] Hoe-Down (1942)
From the ballet Rodeo
Dave Brubeck (1920 – 2012)
[12] Regret (1999)
Исполнители:
Brodsky Quartet
Daniel Rowland violin
Ian Belton violin
Paul Cassidy viola
Jacqueline Thomas cello

Лог создания рипа

Exact Audio Copy V1.0 beta 3 from 29. August 2011
EAC extraction logfile from 19. November 2014, 1:59
Brodsky Quartet / New World Quartets
Used drive : HL-DT-STDVDRAM GU70N Adapter: 0 ID: 0
Read mode : Secure
Utilize accurate stream : Yes
Defeat audio cache : Yes
Make use of C2 pointers : No
Read offset correction : 48
Overread into Lead-In and Lead-Out : No
Fill up missing offset samples with silence : Yes
Delete leading and trailing silent blocks : No
Null samples used in CRC calculations : Yes
Used interface : Native Win32 interface for Win NT & 2000
Used output format : User Defined Encoder
Selected bitrate : 128 kBit/s
Quality : High
Add ID3 tag : No
Command line compressor : C:\Program Files (x86)\Exact Audio Copy\Flac\flac.exe
Additional command line options : -V -8 -T "Date=%year%" -T "Genre=%genre%" %source%
TOC of the extracted CD
Track | Start | Length | Start sector | End sector
---------------------------------------------------------
1 | 0:00.00 | 10:06.26 | 0 | 45475
2 | 10:06.26 | 8:27.34 | 45476 | 83534
3 | 18:33.60 | 3:45.43 | 83535 | 100452
4 | 22:19.28 | 5:35.17 | 100453 | 125594
5 | 27:54.45 | 6:05.06 | 125595 | 152975
6 | 33:59.51 | 4:02.18 | 152976 | 171143
7 | 38:01.69 | 8:28.68 | 171144 | 209311
8 | 46:30.62 | 8:45.50 | 209312 | 248736
9 | 55:16.37 | 2:35.43 | 248737 | 260404
10 | 57:52.05 | 9:11.24 | 260405 | 301753
11 | 67:03.29 | 3:48.14 | 301754 | 318867
12 | 70:51.43 | 6:13.32 | 318868 | 346874
Range status and errors
Selected range
Filename C:\temp\CHAN_10801 - New World Quartets - Brodsky Quartet\New World Quartets.wav
Peak level 99.6 %
Extraction speed 2.3 X
Range quality 100.0 %
Test CRC 777F11C7
Copy CRC 777F11C7
Copy OK
No errors occurred
AccurateRip summary
Track 1 accurately ripped (confidence 1) [1C2C9164] (AR v2)
Track 2 accurately ripped (confidence 1) [5736CDBC] (AR v2)
Track 3 accurately ripped (confidence 1) [535CA0FD] (AR v2)
Track 4 accurately ripped (confidence 1) [5008CE54] (AR v2)
Track 5 accurately ripped (confidence 1) [030B2678] (AR v2)
Track 6 accurately ripped (confidence 1) [68EA9544] (AR v2)
Track 7 accurately ripped (confidence 1) [6A3C8847] (AR v2)
Track 8 accurately ripped (confidence 1) [61CA3C78] (AR v2)
Track 9 accurately ripped (confidence 1) [477568A1] (AR v2)
Track 10 accurately ripped (confidence 1) [59DA9717] (AR v2)
Track 11 accurately ripped (confidence 1) [3AEB6C19] (AR v2)
Track 12 accurately ripped (confidence 1) [EE534E4C] (AR v2)
All tracks accurately ripped
End of status report
==== Log checksum F9DDD80CEAE75DC4BBB87B9389056AF9D6FF85AC9EE0589756A936ED821A0C7C ====



Показать сообщения:    

Текущее время: 07-Дек 19:27

Часовой пояс: UTC + 3


Вы не можете начинать темы
Вы не можете отвечать на сообщения
Вы не можете редактировать свои сообщения
Вы не можете удалять свои сообщения
Вы не можете голосовать в опросах
Вы не можете прикреплять файлы к сообщениям
Вы не можете скачивать файлы