Wagner - Die Meistersinger von Nürnberg (Annette Dasch, Karen Cargill, Johan Botha, Paul Appleby / James Levine) / Вагнер - Нюрнбергские Мейстерзингеры (Аннет Даш, Карен Кэгил, Йохан Бота, Пол Эпплби / Джеймс Ливайн [13.12.2014, Opera, HDTVRip]


 

[Цитировать]

Wagner - Die Meistersinger von Nürnberg / Вагнер - Нюрнбергские Мейстерзингеры
Год выпуска: 13.12.2014
Жанр: Opera
Продолжительность: 05:13:18
Язык: немецкий
Субтитры: отсутствуют (часть первого и второго акта - французские вшитые)
Режиссер: Отто Шенк
Дирижер: Джеймс Ливайн
Исполнители:
Ева - Аннет Даш
Магдалена - Карен Кэгил
Вальтер фон Штольцинг - Йохан Бота
Давид - Пол Эпплби
Ганс Сакс - Михаэль Фолле
Бекмессер - Йоханнес Мартин Крэнцле
Погнер - Ханс-Петер Кёниг
Ночной сторож - Мэтью Роуз
Описание:
Комическая опера Вагнера «Нюрнбергские мейстерзингеры» впервые будет представлена в серии трансляций Live in HD. За дирижерским пультом – Джеймс Ливайн. Михаэль Фолле исполнит роль Ганса Сакса, Йохан Бота – роль Вальтера, Аннет Даш сыграет красавицу Еву, Карен Кэгил – ее кормилицу Магдалену, Пол Эпплби исполнит роль Давида, а Ханс-Петер Кёниг – отца Евы, Погнера. Йоханнес Мартин Крэнцле дебютирует в Мет в роли Бекмессера.
Доп. информация:
Видеозапись с технического канала (спутник 1W), исходное видео сжато (1920х1080i -> 960х540p), аудио без изменений.
Отдельное спасибо Леониду Гуральнику - только благодаря его усилиям был получен полный вариант оперы, значительную часть которой мне не удалось записать на своем оборудовании из-за непредвиденного технического сбоя.
Спасибо за консультации и советы Ya-san, без участия которого этот релиз вряд ли бы тут появился.
Качество: HDTVRip
Формат: MKV
Видео кодек: H.264
Аудио кодек: AC3
Видео: 960x540p (16х9), 25 fps, 1296Kbps
Аудио: 48000Hz, 6ch, 448Kbps

MediaInfo

General
Unique ID : 208815722079786663916028829040994562230 (0x9D1871F8B534B7FFBAD7070517E230B6)
Complete name : F:\Торрент\Vagner_Die_Meistersinger_von_Nurnberg_Met_2014.mkv
Format : Matroska
Format version : Version 2
File size : 3.89 GiB
Duration : 5h 13mn
Overall bit rate : 1 779 Kbps
Encoded date : UTC 2015-02-28 04:58:24
Writing application : mkvmerge v7.6.0 ('Garden of Dreams') 32bit built on Feb 11 2015 00:18:47
Writing library : libebml v1.3.1 + libmatroska v1.4.2
Video
ID : 1
Format : AVC
Format/Info : Advanced Video Codec
Format profile : High@L4.1
Format settings, CABAC : Yes
Format settings, ReFrames : 8 frames
Codec ID : V_MPEG4/ISO/AVC
Duration : 5h 13mn
Bit rate : 1 296 Kbps
Width : 960 pixels
Height : 540 pixels
Display aspect ratio : 16:9
Frame rate mode : Constant
Frame rate : 25.000 fps
Color space : YUV
Chroma subsampling : 4:2:0
Bit depth : 8 bits
Scan type : Progressive
Bits/(Pixel*Frame) : 0.100
Stream size : 2.84 GiB (73%)
Writing library : x264 core 144 r2525 40bb568
Encoding settings : cabac=1 / ref=8 / deblock=1:0:0 / analyse=0x3:0x113 / me=umh / subme=9 / psy=1 / psy_rd=1.00:0.00 / mixed_ref=1 / me_range=16 / chroma_me=1 / trellis=2 / 8x8dct=1 / cqm=0 / deadzone=21,11 / fast_pskip=1 / chroma_qp_offset=-2 / threads=3 / lookahead_threads=1 / sliced_threads=0 / nr=0 / decimate=1 / interlaced=0 / bluray_compat=0 / constrained_intra=0 / bframes=3 / b_pyramid=2 / b_adapt=2 / b_bias=0 / direct=3 / weightb=1 / open_gop=0 / weightp=2 / keyint=250 / keyint_min=25 / scenecut=40 / intra_refresh=0 / rc_lookahead=60 / rc=crf / mbtree=1 / crf=19.5 / qcomp=0.60 / qpmin=0 / qpmax=69 / qpstep=4 / vbv_maxrate=14000 / vbv_bufsize=14000 / crf_max=0.0 / nal_hrd=none / filler=0 / ip_ratio=1.40 / aq=1:1.00
Default : Yes
Forced : No
Audio
ID : 2
Format : AC-3
Format/Info : Audio Coding 3
Mode extension : CM (complete main)
Format settings, Endianness : Big
Codec ID : A_AC3
Duration : 5h 13mn
Bit rate mode : Constant
Bit rate : 448 Kbps
Channel(s) : 6 channels
Channel positions : Front: L C R, Side: L R, LFE
Sampling rate : 48.0 KHz
Bit depth : 16 bits
Compression mode : Lossy
Stream size : 1 004 MiB (25%)
Default : Yes
Forced : No

Скриншоты




Показать сообщения:    

Текущее время: 07-Дек 19:23

Часовой пояс: UTC + 3


Вы не можете начинать темы
Вы не можете отвечать на сообщения
Вы не можете редактировать свои сообщения
Вы не можете удалять свои сообщения
Вы не можете голосовать в опросах
Вы не можете прикреплять файлы к сообщениям
Вы не можете скачивать файлы