Кумиры экрана. Лидия Смирнова (Руслан Заварзин) [2000, Личности и кумиры, DVB]


Статистика раздачи [Обновить пиров]
Размер:  460 MB   |    Зарегистрирован:  8 месяцев 19 дней   |    Скачан:  0 раз

Полного источника не было: Никогда

 
   
 
 
 

[Цитировать]

Кумиры экрана. Лидия Смирнова
Дата/Год выпуска: 2000
Страна: Россия
Жанр: Личности и кумиры
Продолжительность: 00:26:40
Перевод: Не требуется
Студия / издатель: ВТВ-сервис
Русские субтитры: нет
Режиссер: Руслан Заварзин
Телеканал: Ретро
Описание: Лидия Николаевна Смирнова родилась в семье земской учительницы и царского офицера. Детство её было отмечено бурным началом века, всей семье пришлось пройти через многое. После того, как закончилась революция, отец Лидии стал уже не царским офицером, а колчаковским. Вскоре он пропал без вести.Дальше всё было так же, как и у многих в то время: голодная юность, идеи комсомола, норма ГТО, полярники, Чкалов, флаги и демонстрации.Лидия Смирнова, как говорится, была комсомолкой и красавицей, старостой и председателем спортивной организации. Девушке прочили карьеру спортсменки, но она выбрала другой путь. Сразу после школы она уехала в Москву, чтобы поступить в промышленно-экономический техникум. Получив диплом экономиста, она по распределению отправилась работать в Главное управление авиа промышленности.Но, от типичной советской биографии Лидию Николаевну уберегло искреннее увлечение театральным искусством.Бросив авиационный институт на втором курсе, Лидия Смирнова подаёт документы одновременно в Вахтанговское училище, Всесоюзный государственный институт кинематографии и в школу Камерного театра. К своему удивлению, она успешно справляется с вступительными испытаниями во все три учебные заведения. Выбор падает на школу-студию при Камерном театре, потому что оно располагалось ближе всего к её дому.После окончания студии талант актрисы был замечен. Ей предложили главную роль в фильме «Моя любовь». Именно эта роль принесла Лидии Смирновой всесоюзную любовь. Она стала кумиров миллионов простых советских девушек и парней. Да и как можно было не полюбить искреннюю девушку Шурочку, уверяющую, что «Ждать любовь не надо, явится нежданно…»Даже несмотря на пожилой возраст,( она прожила 93 года) Лидия Смирнова жила необычайно деятельной и активной жизнью. Она много путешествовала по родной стране, занималась общественной деятельностью. Была членом Союза кинематографистов России. Увлечения Лидии Николаевны не ограничивались кинематографом. Она коллекционировала кукол в национальных нарядах мира. Её коллекция насчитывает сотни кукол,кроме всего прочего, актриса увлекалась балетом и классической музыкой. Через всю жизнь она пронесла принцип: «Чем труднее роль, тем интереснее над ней работать». Подобного же принципа она придерживалась и в жизни, никогда не пасовала перед трудностями.
Доп. информация: "Кумиры экрана" - авторская передача Народной артистки СССР Клары Лучко, выступающей в роли ведущей.
Сэмпл:https://www.sendspace.com/file/afxelm
качество: DVB
формат: MPG
Видео: MPEG2 720:576 4:3 2170 Кбит/сек 25,000 кадров/сек
Аудио: MPEG Audio 192 Кбит/сек 48,0 КГц 2 канала

MediaInfo

общее
Полное имя : Кумиры экрана Л.Смирнова.mpg
Формат : MPEG-PS
Размер файла : 460 Мбайт
Продолжительность : 26 м.
Режим общего битрейта : Переменный
Общий поток : 2410 Кбит/сек
Библиотека кодирования : (dvd5: Nov 27 2014)
Видео
Идентификатор : 224 (0xE0)
Формат : MPEG Video
Версия формата : Version 2
Профиль формата : Main@Main
Параметр BVOP формата : Да
Параметр матрицы формата : Выборочная
Параметр GOP формата : M=3, N=12
Продолжительность : 26 м.
Вид битрейта : Переменный
Битрейт : 2170 Кбит/сек
Максимальный битрейт : 10000 Кбит/сек
Ширина : 720 пикселей
Высота : 576 пикселей
Соотношение сторон : 4:3
Частота кадров : 25,000 кадров/сек
Стандарт вещания : PAL
Цветовое пространство : YUV
Субдискретизация насыщенности : 4:2:0
Битовая глубина : 8 бит
Тип развёртки : Чересстрочная
Порядок развёртки : Верхнее поле первое
Метод сжатия : С потерями
Бит/(Пиксели*Кадры) : 0.209
Временной код первого кадра : 00:00:00:00
Оригинал временного кода : Group of pictures header
Размер потока : 414 Мбайт (90%)
Библиотека кодирования : (dvd5: Nov 27 2014)
Аудио
Идентификатор : 192 (0xC0)
Формат : MPEG Audio
Версия формата : Version 1
Профиль формата : Layer 2
Продолжительность : 26 м.
Вид битрейта : Постоянный
Битрейт : 192 Кбит/сек
Каналы : 2 канала
Частота : 48,0 КГц
Метод сжатия : С потерями
Размер потока : 36,6 Мбайт (8%)

Скриншоты

Запись потока *.ts произведена тюнером цифрового телевидения. В связи с тем, что не все плееры воспроизводят поток *.ts (MPEG-TS) , в данном видеофайле мной был сделан ремукс потока *.ts (MPEG-TS) в *.mpg (MPEG-PS) программой VideoReDo.
[teatrix.ru].t20527.torrent 
Торрент: Зарегистрирован [ 2016-03-20 00:04 ] · 5259C07DB26C3482E6AE5032DC42CD63456F981C

Скачать .torrent

Скачать

18 KB

Статус: проверено
Скачан: 0 раз
Размер: 460 MB
terms.php



Быстрый ответ

Имя:

      
Для отправки сообщений необходимо включить JavaScript
Показать сообщения:    

Текущее время: 08-Дек 10:58

Часовой пояс: UTC + 3


Вы можете начинать темы
Вы можете отвечать на сообщения
Вы не можете редактировать свои сообщения
Вы не можете удалять свои сообщения
Вы не можете голосовать в опросах
Вы не можете прикреплять файлы к сообщениям
Вы можете скачивать файлы