Звездочки на земле: Как создавался фильм / Taare Zameen Par: The Making (Аамир Кхан / Aamir Khan) [2007, Индия, Документальный, DVDRip] DVO


Статистика раздачи [Обновить пиров]
Размер:  686 MB   |    Зарегистрирован:  8 месяцев 20 дней   |    Скачан:  0 раз

Полного источника не было: Никогда

 
   
 
 
 

[Цитировать]

Звездочки на земле: Как создавался фильм / Taare Zameen Par: The Making
Страна: Индия
Жанр: Документальный
Год выпуска: 2007
Продолжительность: 01:03:00
Перевод: Любительский (двухголосый закадровый)
Cубтитры: нет
Оригинальная аудиодорожка: нет
Режиссер: Аамир Кхан / Aamir Khan
В ролях: Даршил Сафари, Аамир Кхан, Киран Рао и др.
Описание: Документальный фильм о съемках фильма "Звездочки на земле"
Сэмпл: http://multi-up.com/1036776
Качество видео: DVDRip
Формат видео: AVI
Видео кодек: XviD
Размер кадра: 720x480 pixel
Частота кадра: 29.97 fps
Видео битрейт: 1219 kbps
Аудио кодек: AC3
Частота дискретизации: 44.1 kHz
Каналы: 2.0 (stereo)
Аудио битрейт: 192 kbps
Релиз групп: SKR & Khushi Khiladi
Перевод текста: Юлия Титова
Редакция: Оксана Борц
Текст читали: Кraffty (SKR Studio) & Мия Руда (Khushi Khiladi)
Монтаж: Kraffty (SKR Studio)

MediaInfo

Общее
Полное имя : F:\Zvezdochki.na.zemle.Kak.sozdavalsya.film.2007.DVDRip.XviD.KhushiKhiladi.SKR.avi
Формат : AVI
Формат/Информация : Audio Video Interleave
Размер файла : 686 Мбайт
Продолжительность : 1 ч. 3 м.
Общий поток : 1513 Кбит/сек
TCOD : 0
TCDO : 38037332666
Видео
Идентификатор : 0
Формат : MPEG-4 Visual
Профиль формата : Advanced Simple@L5
Параметр BVOP формата : 2
Параметр QPel формата : Нет
Параметр GMC формата : Без точки перехода
Параметр матрицы формата : Default (H.263)
Режим смешивания : Сжатый битовый поток
Идентификатор кодека : XVID
Идентификатор кодека/Подсказка : XviD
Продолжительность : 1 ч. 3 м.
Битрейт : 1219 Кбит/сек
Ширина : 720 пикселей
Высота : 480 пикселей
Соотношение сторон : 3:2
Частота кадров : 29,970 кадров/сек
Стандарт вещания : NTSC
Цветовое пространство : YUV
Субдискретизация насыщенности : 4:2:0
Битовая глубина : 8 бит
Тип развёртки : Прогрессивная
Метод сжатия : С потерями
Бит/(Пиксели*Кадры) : 0.118
Размер потока : 553 Мбайт (81%)
Библиотека кодирования : XviD 73
Аудио
Идентификатор : 1
Формат : AC-3
Формат/Информация : Audio Coding 3
Расширение режима : CM (complete main)
Параметр Endianness формата : Big
Идентификатор кодека : 2000
Продолжительность : 1 ч. 3 м.
Вид битрейта : Постоянный
Битрейт : 192 Кбит/сек
Каналы : 2 канала
Расположение каналов : Front: L R
Частота : 44,1 КГц
Битовая глубина : 16 бит
Метод сжатия : С потерями
Размер потока : 86,9 Мбайт (13%)
Выравнивание : Соединение по промежуткам
Продолжительность промежутка : 250 мс. (7,49 видеокадров)
Время предзагрузки промежутка : 278 мс.

Скриншот c названием фильма

Скриншоты

[teatrix.ru].t20531.torrent 
Торрент: Зарегистрирован [ 2016-03-20 00:05 ] · 792B5FD0E3814E29398A16204FEC2F33ACE05DA8

Скачать .torrent

Скачать

14 KB

Статус: проверено
Скачан: 0 раз
Размер: 686 MB
terms.php



Показать сообщения:    

Текущее время: 09-Дек 16:33

Часовой пояс: UTC + 3


Вы не можете начинать темы
Вы не можете отвечать на сообщения
Вы не можете редактировать свои сообщения
Вы не можете удалять свои сообщения
Вы не можете голосовать в опросах
Вы не можете прикреплять файлы к сообщениям
Вы можете скачивать файлы