Моцарт - Король-пастух / Wolfgang Amadeus Mozart - Il Re Pastore (Jerry Hadley, Sylvia McNair, Angela Maria Blasi, Iris Vermillion) (K.208) Neville Marriner / John Cox [1989/2006, Opera, DVD9] Salzburg


 

[Цитировать]

Wolfgang Amadeus Mozart - Il rè pastoreМОЦАРТ - КОРОЛЬ-пастух
_______________________________________________________________
Год записи/выпуска: 1989/2006
Лейбл: Philips
Страна-производитель: Netherlands
Жанр: Opera
Продолжительность: 115 min
Язык: Italian
Субтитры: German, English, French, Spanish, Chinese
Режиссер/Хореограф: John Cox
Исполнители:
Alessandro - Jerry Hadley
Elisa - Sylvia McNair
Aminta - Angela Maria Blasi
Tamiri - Iris Vermillion
Agenore - Claes-Håkon Ahnsjö
Briony Shaw (Violin)
Conductor: Sir Neville Marriner
Orchestra: Academy of St. Martin in the Fields
Video director: Brian Large
Salzburger Landestheater, 1989
With great thanks for the original DVD-riper!
Качество видео: DVD9
Формат/Контейнер: DVDVideo
Видео кодек: MPEG1
Видео поток: NTSC AR 4:3 720x480@540
Аудио поток: LPCM Stereo; DTS 5.1 Surround

Скриншоты

MI

General
Complete name                            : Mozart - Il Re Pastore (Salzburg1989)\VIDEO_TS\VTS_01_1.VOB
Format                                   : MPEG-PS
File size                                : 1 024 MiB
Duration                                 : 16mn 38s
Overall bit rate mode                    : Variable
Overall bit rate                         : 8 602 Kbps
[br]
Video
ID                                       : 224 (0xE0)
Format                                   : MPEG Video
Format version                           : Version 2
Format profile                           : Main@Main
Format settings, BVOP                    : Yes
Format settings, Matrix                  : Custom
Format settings, GOP                     : Variable
Duration                                 : 16mn 38s
Bit rate mode                            : Variable
Bit rate                                 : 5 385 Kbps
Maximum bit rate                         : 9 800 Kbps
Width                                    : 720 pixels
Height                                   : 480 pixels
Display aspect ratio                     : 4:3
Frame rate                               : 29.970 fps
Standard                                 : NTSC
Color space                              : YUV
Chroma subsampling                       : 4:2:0
Bit depth                                : 8 bits
Scan type                                : Interlaced
Scan order                               : Bottom Field First
Compression mode                         : Lossy
Bits/(Pixel*Frame)                       : 0.520
Time code of first frame                 : 01:00:00:14
Time code source                         : Group of pictures header
Stream size                              : 641 MiB (63%)
[br]
Audio #1
ID                                       : 189 (0xBD)-137 (0x89)
Format                                   : DTS
Format/Info                              : Digital Theater Systems
Mode                                     : 16
Format settings, Endianness              : Big
Muxing mode                              : DVD-Video
Duration                                 : 16mn 38s
Bit rate mode                            : Constant
Bit rate                                 : 1 510 Kbps
Channel(s)                               : 6 channels
Channel positions                        : Front: L C R, Side: L R, LFE
Sampling rate                            : 48.0 KHz
Bit depth                                : 24 bits
Compression mode                         : Lossy
Delay relative to video                  : -33ms
Stream size                              : 180 MiB (18%)
[br]
Audio #2
ID                                       : 189 (0xBD)-160 (0xA0)
Format                                   : PCM
Format settings, Endianness              : Big
Format settings, Sign                    : Signed
Muxing mode                              : DVD-Video
Duration                                 : 16mn 38s
Bit rate mode                            : Constant
Bit rate                                 : 1 536 Kbps
Channel(s)                               : 2 channels
Sampling rate                            : 48.0 KHz
Bit depth                                : 16 bits
Delay relative to video                  : -33ms
Stream size                              : 183 MiB (18%)
[br]
Text #1
ID                                       : 189 (0xBD)-32 (0x20)
Format                                   : RLE
Format/Info                              : Run-length encoding
Muxing mode                              : DVD-Video
[br]
Text #2
ID                                       : 189 (0xBD)-33 (0x21)
Format                                   : RLE
Format/Info                              : Run-length encoding
Muxing mode                              : DVD-Video
[br]
Text #3
ID                                       : 189 (0xBD)-34 (0x22)
Format                                   : RLE
Format/Info                              : Run-length encoding
Muxing mode                              : DVD-Video
[br]
Text #4
ID                                       : 189 (0xBD)-35 (0x23)
Format                                   : RLE
Format/Info                              : Run-length encoding
Muxing mode                              : DVD-Video
[br]
Text #5
ID                                       : 189 (0xBD)-36 (0x24)
Format                                   : RLE
Format/Info                              : Run-length encoding
Muxing mode                              : DVD-Video
[br]
Menu



Показать сообщения:    

Текущее время: 06-Дек 11:15

Часовой пояс: UTC + 3


Вы не можете начинать темы
Вы не можете отвечать на сообщения
Вы не можете редактировать свои сообщения
Вы не можете удалять свои сообщения
Вы не можете голосовать в опросах
Вы не можете прикреплять файлы к сообщениям
Вы не можете скачивать файлы