(Classical) Reflections of the Past and Present: Bach, Meijering, Wennakoski, Palestrina, Marstrander, Purcell, Raisanen, Byrd - Bravade Recorder Quartet - 2014, FLAC (image+.cue) lossless


 

[Цитировать]

Reflections of the Past and Present: Bach, Meijering, Wennäkoski, Palestrina, Marstrander, Purcell, Räisänen, Byrd - Bravade Recorder Quartet
Жанр: Classical
Страна-производитель диска: Finland
Год издания диска: 2014
Издатель (лейбл): Pilfink records
Дата записи: 2012, 2013
Аудиокодек: FLAC
Тип рипа: image+.cue
Битрейт аудио: lossless
Продолжительность: 53:46
Источник: собственный рип
Наличие сканов в содержимом раздачи: да
Треклист:
Reflections of the Past and Present
[1] J.S. Bach: Fuga in C major, BWV 545/2
[2] Chiel Meijering: Sitting Ducks
[3] Lotta Wennäkoski: Meeli
[4] Palestrina: Super Flumina Babylonis
[5] Henrik Marstrander: Big Things, Small Shadows
[6] Henry Purcell: Fantasia in D minor, Z.743, No.12
[7]-[11] Tomi Räisänen: Under the Apple Tree
5 Pieces for Recorder Quartet
[12] William Byrd: Fantasia a4 in G minor
[13] Palestrina: Sicut Cervus
Исполнители:
Bravade Recorder Quartet
Sunniva Fagerlund
Pauliina Fred
Hanna Haapamäki
Hanna Kangasniemi

Лог создания рипа

Exact Audio Copy V1.0 beta 3 from 29. August 2011
EAC extraction logfile from 27. November 2014, 1:51
Bravade Recorder Quartet / Reflections of the Past and Present
Used drive : HL-DT-STDVDRAM GU70N Adapter: 0 ID: 0
Read mode : Secure
Utilize accurate stream : Yes
Defeat audio cache : Yes
Make use of C2 pointers : No
Read offset correction : 48
Overread into Lead-In and Lead-Out : No
Fill up missing offset samples with silence : Yes
Delete leading and trailing silent blocks : No
Null samples used in CRC calculations : Yes
Used interface : Native Win32 interface for Win NT & 2000
Used output format : User Defined Encoder
Selected bitrate : 128 kBit/s
Quality : High
Add ID3 tag : No
Command line compressor : C:\Program Files (x86)\Exact Audio Copy\Flac\flac.exe
Additional command line options : -V -8 -T "Date=%year%" -T "Genre=%genre%" %source%
TOC of the extracted CD
Track | Start | Length | Start sector | End sector
---------------------------------------------------------
1 | 0:00.00 | 4:09.24 | 0 | 18698
2 | 4:09.24 | 6:54.56 | 18699 | 49804
3 | 11:04.05 | 6:51.06 | 49805 | 80635
4 | 17:55.11 | 3:51.50 | 80636 | 98010
5 | 21:46.61 | 9:04.52 | 98011 | 138862
6 | 30:51.38 | 3:19.21 | 138863 | 153808
7 | 34:10.59 | 1:51.25 | 153809 | 162158
8 | 36:02.09 | 3:06.05 | 162159 | 176113
9 | 39:08.14 | 1:40.13 | 176114 | 183626
10 | 40:48.27 | 2:14.59 | 183627 | 193735
11 | 43:03.11 | 2:04.12 | 193736 | 203047
12 | 45:07.23 | 2:48.35 | 203048 | 215682
13 | 47:55.58 | 5:48.50 | 215683 | 241832
Range status and errors
Selected range
Filename C:\temp\Reflections of the Past and Present - Bravade Recorder Quartet\Reflections of the Past and Present.wav
Peak level 96.8 %
Extraction speed 2.0 X
Range quality 100.0 %
Test CRC 5D9549E8
Copy CRC 5D9549E8
Copy OK
No errors occurred
AccurateRip summary
Track 1 not present in database
Track 2 not present in database
Track 3 not present in database
Track 4 not present in database
Track 5 not present in database
Track 6 not present in database
Track 7 not present in database
Track 8 not present in database
Track 9 not present in database
Track 10 not present in database
Track 11 not present in database
Track 12 not present in database
Track 13 not present in database
None of the tracks are present in the AccurateRip database
End of status report
==== Log checksum F9305CC76BBBED553202CA70A06555554AC6278D0580C2E1C63B816182FCDA70 ====



Показать сообщения:    

Текущее время: 19-Янв 16:04

Часовой пояс: UTC + 3


Вы не можете начинать темы
Вы не можете отвечать на сообщения
Вы не можете редактировать свои сообщения
Вы не можете удалять свои сообщения
Вы не можете голосовать в опросах
Вы не можете прикреплять файлы к сообщениям
Вы не можете скачивать файлы