[TR24][SM][OF] Anton Bruckner - Symphony No. 5 - Neeme Järvi/Jarvi and Residentie Orchesrtra The Hague - 2010 (Classical)


Статистика раздачи [Обновить пиров]
Размер:  1.04 GB   |    Зарегистрирован:  8 месяцев 22 дня   |    Скачан:  0 раз

Полного источника не было: Никогда

 
   
 
 
 

[Цитировать]

·
Anton Bruckner (1824 – 1896)Жанр: Symphony
Носитель: Official Digital Download
Год издания диска: 2010
Издатель(лейбл): Chandos Records
Номер по каталогу: CHAN 5080
Продолжительность: 61:49
Наличие сканов в содержимом раздачи: cover & booklet
Контейнер: FLAC (*.flac)
Разрядность: 24/96
Количество каналов: 2.0
Формат: tracks
Источник: theclassicalshop.net
Pелизер: WEB (thanks to the original customer)
Neeme Järvi
Residentie Orchesrtra The Hague
http://www.theclassicalshop.net/Details.aspx?CatalogueNumber=CHAN%205080

Треклист

Symphony No.5 (1878 Version) WAB 105Edition Leopold Nowak (1951)
01 I Introduction. Adagio - Allegro 17:57
02 II Adagio. Sehr langsam 11:15
03 III Scherzo. Molto vivace (Schnell) - Trio. Im gleichen Tempo 12:56
04 IV Finale. Adagio - Allegro moderato - Choral 19:41

Dynamic Range Meter

foobar2000 1.2.6 / Dynamic Range Meter 1.1.1
log date: 2015-03-07 00:39:30
--------------------------------------------------------------------------------
Analyzed: Residentie Orchestra The Hague, Neeme Järvi / Bruckner: Symphony No. 5, WAB 105
--------------------------------------------------------------------------------
DR Peak RMS Duration Track
--------------------------------------------------------------------------------
DR14 -1.48 dB -21.26 dB 18:02 01-Symphony No. 5, WAB 105 - I. Introduction. Adagio – Allegro
DR12 -3.89 dB -23.50 dB 11:20 02-Symphony No. 5, WAB 105 - II. Adagio. Sehr langsam
DR14 -0.63 dB -21.15 dB 12:58 03-Symphony No. 5, WAB 105 - III. Scherzo. Molto vivace (Schnell) – Trio. Im gleichen Tempo
DR15 0.00 dB -21.92 dB 19:40 04-Symphony No. 5, WAB 105 - IV. Finale. Adagio – Allegro moderato – Choral
--------------------------------------------------------------------------------
Number of tracks: 4
Official DR value: DR14
Samplerate: 96000 Hz
Channels: 2
Bits per sample: 24
Bitrate: 2403 kbps
Codec: FLAC
================================================================================
[teatrix.ru].t20534.torrent 
Торрент: Зарегистрирован [ 2016-03-20 00:05 ] · 880B0784E54FCDB311352AAC765E782B003239F2

Скачать .torrent

Скачать

11 KB

Статус: проверено
Скачан: 0 раз
Размер: 1.04 GB
terms.php



Быстрый ответ

Имя:

      
Для отправки сообщений необходимо включить JavaScript
Показать сообщения:    

Текущее время: 11-Дек 05:23

Часовой пояс: UTC + 3


Вы можете начинать темы
Вы можете отвечать на сообщения
Вы не можете редактировать свои сообщения
Вы не можете удалять свои сообщения
Вы не можете голосовать в опросах
Вы не можете прикреплять файлы к сообщениям
Вы можете скачивать файлы