50 биографий. Творческий вечер Бориса Чиркова [1963 г., творческий вечер, TVRip]


Статистика раздачи [Обновить пиров]
Размер:  747 MB   |    Зарегистрирован:  8 месяцев 19 дней   |    Скачан:  0 раз

Полного источника не было: Никогда

 
   
 
 
 

[Цитировать]

50 биографий. Творческий вечер Бориса Чиркова Год выпуска: 1963.
Жанр: творческий вечер.
Продолжительность: 01:24:26.
Описание:
Настоящий художник всегда всем сердцем разделяет душевные терзания и радости своего героя, живет его жизнью.
В творческом вечере "50 биографий" идет разговор о пятидесяти судьбах, пятидесяти характерах, пятидесяти жизнях одного человека - народного артиста СССР Бориса Петровича Чиркова.
Актер рассказывает о своем творчестве.
В программе использованы фрагменты из кинофильмов и спектаклей с его участием.

Дополнительная информация:
Релиз
Качество видео:...TVRip
Формат:.................AVI
Видео:..704x528 (1.33:1), 25 fps, XviD MPEG-4 ~1099 kbps avg, 0.12 bit/pixel
Аудио:..44.100 kHz, MPEG Layer 3, 2 ch, ~128.00 kbps avg

Отчет Media Info

Общее
Полное имя : 50 биографий. Творческий вечер Бориса Чиркова\Boris.Chirkov.tvorcheskij.vecher.1976.XviD.TVRip.fenixclub.avi
Формат : AVI
Формат/Информация : Audio Video Interleave
Размер файла : 747 Мбайт
Продолжительность : 1 ч. 24 м.
Общий поток : 1237 Кбит/сек
Программа кодирования : VirtualDubModRus 1.5.10.2 (build 2542/release)
Библиотека кодирования : VirtualDub build 32842/release
Видео
Идентификатор : 0
Формат : MPEG-4 Visual
Профиль формата : Advanced Simple@L5
Параметр BVOP формата : 2
Параметр QPel формата : Нет
Параметр GMC формата : Без точки перехода
Параметр матрицы формата : Default (H.263)
Режим смешивания : Сжатый битовый поток
Идентификатор кодека : XVID
Идентификатор кодека/Подсказка : XviD
Продолжительность : 1 ч. 24 м.
Битрейт : 1099 Кбит/сек
Ширина : 704 пикселя
Высота : 528 пикселей
Соотношение сторон : 4:3
Частота кадров : 25,000 кадров/сек
Цветовое пространство : YUV
Субдискретизация насыщенности : 4:2:0
Битовая глубина : 8 бит
Тип развёртки : Прогрессивная
Метод сжатия : С потерями
Бит/(Пиксели*Кадры) : 0.118
Размер потока : 664 Мбайт (89%)
Библиотека кодирования : XviD 73
Аудио
Идентификатор : 1
Формат : MPEG Audio
Версия формата : Version 1
Профиль формата : Layer 3
Режим : Joint stereo
Расширение режима : MS Stereo
Идентификатор кодека : 55
Идентификатор кодека/Подсказка : MP3
Продолжительность : 1 ч. 24 м.
Вид битрейта : Постоянный
Битрейт : 128 Кбит/сек
Каналы : 2 канала
Частота : 44,1 КГц
Метод сжатия : С потерями
Размер потока : 77,3 Мбайт (10%)
Выравнивание : Разделение по промежуткам
Продолжительность промежутка : 40 мс. (1,00 видеокадр)
Время предзагрузки промежутка : 500 мс.
Библиотека кодирования : LAME3.98.2

Скриншоты

Альтернативный хост

[teatrix.ru].t20535.torrent 
Торрент: Зарегистрирован [ 2016-03-20 00:07 ] · 900EA558486D57F6CF5596EF03CA6DB8DCF85FBC

Скачать .torrent

Скачать

15 KB

Статус: проверено
Скачан: 0 раз
Размер: 747 MB
terms.php



Быстрый ответ

Имя:

      
Для отправки сообщений необходимо включить JavaScript
Показать сообщения:    

Текущее время: 08-Дек 19:08

Часовой пояс: UTC + 3


Вы можете начинать темы
Вы можете отвечать на сообщения
Вы не можете редактировать свои сообщения
Вы не можете удалять свои сообщения
Вы не можете голосовать в опросах
Вы не можете прикреплять файлы к сообщениям
Вы можете скачивать файлы