С Новым годом: Гала-оперетта из Дрездена / Happy New Year: Die Operettengala Aus Dresden [2012, Classical, Operetta, BDRip 720p]



С Новым годом: Гала-оперетта из Дрездена / Happy New Year: Die Operettengala Aus Dresden
Год выпуска: 2012
Лейбл: Deutsche Grammophon
Страна-производитель: США
Жанр: Classical, Operetta
Продолжительность: 01:39:21
Язык: Немецкий
Дирижер: Christian Thielemann (Кристиан Тилеманн)
Ingeborg Schöpf (Ингеборг Шёпф) - сопрано,
Piotr Beczala (Пётр Бечала) - тенор
Staatskapelle Dresden (Дрезденская государственная капелла)
01. Happy New Year - Die Operettengala aus Dresden - Opening Credits
02. Overture
03. Höre ich Zigeunergeigen
04. Komm Zigany
05. Einmal mocht' ich wieder tanzen
06. Intermezzo
07. Heia, heia in den Bergen
08. Weißt Du es noch?
09. Zwei Märchenaugen
10. Ballet & Ensemble
11. Mein Traum, mein Traum
12. Wenn es Abend wird - Grüß mir mein Wien
13. Grand Palotas de la Reine
14. 18: Ein kleiner Slowfox mit Mary
15. Heut' Nacht hab' ich geträumt von Dir
16. Tanzen möcht ich
17. Ob blond, ob braun, ich liebe alle Frau'n
18. Carrambolina, Carramboletta
19. O komm mit mir, ich tanz mit dir ins Himmelreich hinein
20. An der Elbe, Op. 477
21. Happy New Year - Die Operettengala aus Dresden - Closing Credits
Описание: Традиция новогодних концертов, проводимых К. Тилеманом в Дрездене, зародилась в 2010. Первые два концерта были посвящены музыке Франца Легара, но для концерта 2012/2013 гг. было использовано творчество Имре Кальмана. Кальман успешно смешал венский стиль легкой музыки с венгерским колоритом. Его наиболее популярная музыка была написана в более ранний период в его жизни. Этот диск предлагает продуманный и довольно всесторонний обзор его музыки. Только в конце концерта звучит вальс Штрауса.

Оригинальное описание

The new 'tradition' of New Year's Eve concerts celebrated in Dresden and conducted by Thielemann started in 2010. The first two focussed on the music of Lehar but for this 2012/2013 concert the focus has moved to the Hungarian, Kalman. Kalman was initially resident in Vienna and successfully blended the Viennese style of light music with his own Hungarian input which included links to the popular gypsy flavours of the time. His most popular music comes from this earlier period in his life. This disc offers a well-balanced and fairly comprehensive survey of his music. Only the final item departs from Kalman and is the An der Elbe waltz by Strauss which concludes the concert.
The concert essentially highlights arias sung by the two soloists with additional items played by the orchestra, sung by the choir and danced by the ballet company. Ingeborg Schopf makes a very fine job of replacing the indisposed Diana Damrau at the very last minute. She is the leading soprano of the Dresden State Operetta company and is obviously at home with the repertoire. Her voice is well able to cope with the demands placed upon it in her four solo arias and also in the fifth piece, where she leads the chorus. She also partners Piotr Beczala in four duets with suitable aplomb.
The chorus are featured in three pieces and sing with gusto and enthusiasm plus some energetic gypsy clapping! The ballet sequence takes the form of a mini-story in much the same way as is familiar with the regular Vienna New Year's Day concerts. The dancing is expertly done and the costumes are exquisite. The orchestra play extremely well throughout under the attentive and meticulous Thielemann, who became their principal conductor in September 2012.
Piotr Beczala, however, clearly steals the show with highly enthusiastic support from the packed audience after each of his five solo arias. He has an effortlessly clear voice, ideally suited to this music and which fills the hall with apparent ease. His manner is most attractively relaxed so his popularity is easily understood. This is his second appearance at these concerts and it is easy to understand why.
The HD recording has all the expected clarity and range of colour. The sound is presented in both DTS surround (default) and stereo. Subtitles are available in English, French and Spanish with the music being sung in the original German.
This is a most attractive light music concert and is well presented. If the program of music by Kalman appeals, I would suggest that this latest disc in the new 'tradition' from Dresden would be well worth considering.
Качество видео: BDRip
Формат/Контейнер: MKV
Видео кодек: H.264
Аудио кодек: AC3, DTS
Видео поток: H.264, 1280x720, 6252 kbps, 29.970 fps
Аудио поток: AC3, 448 kbps, 48 kHz, 2 ch. DTS, 1509 kbps, 48 kHz, 5 ch


Уникальный идентификатор : 170770259748591392829649227626941497209 (0x807927DB0AA779618C3E3317850BBF79)
Полное имя : W:\Torrent_4\Happy New Year. Die Operettengala Aus Dresden (2012) (BDRip 720p, DTS 5.0).mkv
Формат : Matroska
Версия формата : Version 4 / Version 2
Размер файла : 5,80 Гбайт
Продолжительность : 1 ч. 39 м.
Режим общего битрейта : Переменный
Общий поток : 8354 Кбит/сек
Дата кодирования : UTC 2015-03-23 07:31:22
Программа кодирования : mkvmerge v7.7.0 ('Six Voices') 64bit built on Feb 28 2015 23:39:33
Библиотека кодирования : libebml v1.3.1 + libmatroska v1.4.2
_STATISTICS_WRITING_APP : mkvmerge v7.7.0 ('Six Voices') 64bit built on Feb 28 2015 23:39:33
_STATISTICS_WRITING_DATE_UTC : 2015-03-23 07:31:22
DURATION : 01:39:23.520000000
NUMBER_OF_BYTES : 1124870096
Идентификатор : 1
Формат : AVC
Формат/Информация : Advanced Video Codec
Профиль формата : Main@L4.1
Параметр CABAC формата : Да
Параметр ReFrames формата : 3 кадра
Идентификатор кодека : V_MPEG4/ISO/AVC
Продолжительность : 1 ч. 39 м.
Вид битрейта : Переменный
Битрейт : 6231 Кбит/сек
Максимальный битрейт : 8000 Кбит/сек
Ширина : 1280 пикселей
Высота : 720 пикселей
Соотношение сторон : 16:9
Режим частоты кадров : Постоянный
Частота кадров : 29,970 кадров/сек
Стандарт вещания : NTSC
Цветовое пространство : YUV
Субдискретизация насыщенности : 4:2:0
Битовая глубина : 8 бит
Тип развёртки : Прогрессивная
Бит/(Пиксели*Кадры) : 0.226
Размер потока : 4,33 Гбайт (75%)
Язык : English
Default : Да
Forced : Нет
colour_range : Limited
Аудио #1
Идентификатор : 2
Формат : DTS
Формат/Информация : Digital Theater Systems
Режим : 16
Параметр Endianness формата : Big
Идентификатор кодека : A_DTS
Продолжительность : 1 ч. 39 м.
Вид битрейта : Постоянный
Битрейт : 1509 Кбит/сек
Каналы : 5 каналов
Расположение каналов : Front: L C R, Side: L R
Частота : 48,0 КГц
Битовая глубина : 24 бит
Метод сжатия : С потерями
Размер потока : 1,05 Гбайт (18%)
Заголовок : DTS
Язык : German
Default : Да
Forced : Нет
Аудио #2
Идентификатор : 3
Формат : AC-3
Формат/Информация : Audio Coding 3
Расширение режима : CM (complete main)
Параметр Endianness формата : Big
Идентификатор кодека : A_AC3
Продолжительность : 1 ч. 39 м.
Вид битрейта : Постоянный
Битрейт : 448 Кбит/сек
Каналы : 2 канала
Расположение каналов : Front: L R
Частота : 48,0 КГц
Битовая глубина : 16 бит
Метод сжатия : С потерями
Размер потока : 318 Мбайт (5%)
Заголовок : 2.0
Язык : German
Default : Нет
Forced : Нет


23.03.15. Торрент заменен - вместо DTS-HD MA оставен DTS для уменьшения битрейда.

Display posts:    

Current time is: 21-Oct 23:12

All times are UTC + 3

You cannot post new topics in this forum
You cannot reply to topics in this forum
You cannot edit your posts in this forum
You cannot delete your posts in this forum
You cannot vote in polls in this forum
You cannot attach files in this forum
You cannot download files in this forum