Новогодний концерт: Театр "Ла Фениче" / Concerto di Capodanno Teatro La Fenice (New Year's Concert: Teatro La Fenice) (Чайковский, Verdi, Puccini, Rota, Mozart, Mascagni, Donizetti, Ponchielli) [2012, Classical, BDRip 720p]


 

[Цитировать]

Новогодний концерт: Театр "Ла Фениче" / Concerto di Capodanno Teatro La Fenice (New Year's Concert: Teatro La Fenice)
Год выпуска: 2012
Лейбл: Arthaus Musik
Страна-производитель: США
Жанр: Classical
Продолжительность: 01:45:22
Язык: Итальянский
Режиссер: Diego Matheuz (Дьего Матеус)
Хореограф: Mvula Sungani (Мвула Сунгани)
Дирижер: Diego Matheuz (Диего Матеус)
Исполнители:
Jessica Pratt (Джессика Пратт) - сопрано,
Walter Fraccaro (Вальтер Фраккаро) - тенор,
Alex Esposito (Алекс Эспозито) - бас,
Giuseppe Picone (Джузеппе Пиконе) - первый танцор
Milan La Scala Ballet (балет Миланского театра "Ла Скала"), Teatro la Fenice Chorus and Orchestra (хор и оркестр театра "Ла Фениче")
Треклист:
01. Pyotr Il’yich Tchaikovsky - Symphony No. 5 in E minor, Op. 64 (excerpt)
02. Giuseppe Verdi - Un giorno di regno: Sinfonia
03. Giuseppe Verdi - Il Trovatore: Vedi! Le fosche notturne spoglie
04. Giacomo Puccini - Tosca: E lucevan le stele
05. Vincenzo Bellini - La sonnambula: Ah! Non credea mirarti
06. Nino Rota - Il gattopardo: Valzer del commiato
07. Wolfgang Amadeus Mozart - Don Giovanni: Madamina, il catalogo è questo
08. Pietro Mascagni - Cavalleria rusticana: Viva il vino spumeggiante
09. Gaetano Donizetti - Linda di Chamounix: O luce di quest’anima
10. Amilcare Ponchielli - La Gioconda: Danza delle ore: Can-can
11. Giuseppe Verdi - Nabucco: Va’ pensiero sull’ali dorate
12. Giuseppe Verdi - La traviata: Libam ne’ lieti calici
Описание: Согласно текущей традиции, первая часть новогоднего концерта 2012 года из Teatro La Fenice является исключительно оркестровой, состоящей из 5-й симфонии П.И. Чайковского (1840-1893). Вторая часть, в которой солистами являются Джессика Пратт, Вальтер Фраккаро, Алекс Эспозито и которая дополнена хором, посвящена мелодраме и завершается традиционным хоровым “Va pensiero” из "Набукко" и застольной “Libiam ne lieti calici” из "Травиаты" Верди.
Двадцатисемилетний дирижер и виолончелист Матеус Дьего является выпускником интернационально известной Венесуэльской программы подготовки и является уже широко известным, как один из самых многообещающих развивающихся талантов из Америки. В 2005 он начал изучать дирижирование и вскоре привлёк внимание сэра Саймона Рэттла и Клаудио Аббадо, с которым он работал в Каракасе, Люцерне и Лиссабоне. В сентябре 2011 года он был приглашён в качестве ведущего дирижёра в театр La Fenice.

Оригинальное описание

As is now customary, the first part of the 2012 New Year‘s Concert from Teatro La Fenice is exclusively orchestral, with “Symphony No.5” by Pyotr Tchaikovsky. The second part, with soloists Jessica Pratt, Walter Fraccaro and Alex Esposito as well as the choir, is dedicated to melodrama, ending with the traditional chorus “Va pensiero” from “Nabucco” and the toast “Libiam ne lieti calici” from “La Traviata” by Giuseppe Verdi. The twenty-seven year old conductor and violinist Diego Matheuz is a graduate of the internationally known Venezuelan Sistema and is already widely known as one of the most promising developing talents from the Americas. In 2005 he began studying conducting and soon attracted the attention of Sir Simon Rattle and Claudio Abbado, with whom he worked in Caracas, Lucerne and Bologna. In September 2011 he was appointed as Principal Conductor of the Teatro La Fenice.
Качество видео: BDRip
Формат/Контейнер: MKV
Видео кодек: H.264
Аудио кодек: AC3
Видео поток: H.264, 1280x720, 6302 kbps, 29.970 fps
Аудио поток: AC3, 448 kbps, 48 kHz, 2 ch. AC3, 448 kbps, 48 kHz, 6 ch

MediaInfo

Общее
Уникальный идентификатор : 178854057987273401550041778532229219287 (0x868E09E161738B59925060254F3A83D7)
Полное имя : W:\Torrent_4\New Year's Concert - Teatro La Fenice (2012) (BDRip 720p, AC3 5.1).mkv
Формат : Matroska
Версия формата : Version 4 / Version 2
Размер файла : 5,39 Гбайт
Продолжительность : 1 ч. 45 м.
Режим общего битрейта : Переменный
Общий поток : 7344 Кбит/сек
Дата кодирования : UTC 2015-03-07 08:30:17
Программа кодирования : mkvmerge v7.7.0 ('Six Voices') 64bit built on Feb 28 2015 23:39:33
Библиотека кодирования : libebml v1.3.1 + libmatroska v1.4.2
DURATION : 01:45:08.320000000
NUMBER_OF_FRAMES : 197135
NUMBER_OF_BYTES : 353265920
_STATISTICS_WRITING_APP : mkvmerge v7.7.0 ('Six Voices') 64bit built on Feb 28 2015 23:39:33
_STATISTICS_WRITING_DATE_UTC : 2015-03-07 08:30:17
_STATISTICS_TAGS : BPS DURATION NUMBER_OF_FRAMES NUMBER_OF_BYTES
Видео
Идентификатор : 1
Формат : AVC
Формат/Информация : Advanced Video Codec
Профиль формата : Main@L4.1
Параметр CABAC формата : Да
Параметр ReFrames формата : 3 кадра
Идентификатор кодека : V_MPEG4/ISO/AVC
Продолжительность : 1 ч. 45 м.
Вид битрейта : Переменный
Битрейт : 6302 Кбит/сек
Максимальный битрейт : 8000 Кбит/сек
Ширина : 1280 пикселей
Высота : 720 пикселей
Соотношение сторон : 16:9
Режим частоты кадров : Постоянный
Частота кадров : 29,970 кадров/сек
Стандарт вещания : NTSC
Цветовое пространство : YUV
Субдискретизация насыщенности : 4:2:0
Битовая глубина : 8 бит
Тип развёртки : Прогрессивная
Бит/(Пиксели*Кадры) : 0.228
Размер потока : 4,63 Гбайт (86%)
Язык : English
Default : Да
Forced : Нет
colour_range : Limited
Аудио #1
Идентификатор : 2
Формат : AC-3
Формат/Информация : Audio Coding 3
Расширение режима : CM (complete main)
Параметр Endianness формата : Big
Идентификатор кодека : A_AC3
Продолжительность : 1 ч. 45 м.
Вид битрейта : Постоянный
Битрейт : 448 Кбит/сек
Каналы : 6 каналов
Расположение каналов : Front: L C R, Side: L R, LFE
Частота : 48,0 КГц
Битовая глубина : 16 бит
Метод сжатия : С потерями
Размер потока : 337 Мбайт (6%)
Заголовок : AC3 5.1
Язык : Italian
Default : Да
Forced : Нет
Аудио #2
Идентификатор : 3
Формат : AC-3
Формат/Информация : Audio Coding 3
Расширение режима : CM (complete main)
Параметр Endianness формата : Big
Идентификатор кодека : A_AC3
Продолжительность : 1 ч. 45 м.
Вид битрейта : Постоянный
Битрейт : 448 Кбит/сек
Каналы : 2 канала
Расположение каналов : Front: L R
Частота : 48,0 КГц
Битовая глубина : 16 бит
Метод сжатия : С потерями
Размер потока : 337 Мбайт (6%)
Заголовок : AC3 2.0
Язык : Italian
Default : Нет
Forced : Нет

Скриншоты


Blu-ray



Показать сообщения:    

Текущее время: 05-Дек 05:31

Часовой пояс: UTC + 3


Вы не можете начинать темы
Вы не можете отвечать на сообщения
Вы не можете редактировать свои сообщения
Вы не можете удалять свои сообщения
Вы не можете голосовать в опросах
Вы не можете прикреплять файлы к сообщениям
Вы не можете скачивать файлы