Концерт к 100-летию Георга Шолти / Solti Centenary Concert (Валерий Гергиев, Cristian Macelaru) (Mozart, Strauss, Verdi, Mahler, Bartok, Sousa) [2012, Classical, Opera, BDRip 720p]


 

[Цитировать]

Концерт к 100-летию Георга Шолти / Solti Centenary Concert
Год выпуска: 2012
Лейбл: Arthaus Musik
Страна-производитель: Великобритания
Жанр: Classical, Opera
Продолжительность: 01:52:14
Язык: Английский
Субтитры: Немецкие, французские
Режиссер: James M. Fahey (Джеймс М. Фэйи)
Дирижеры: Valery Gergiev (Валерий Гергиев), Cristian Macelaru (Кристиан Мачелару)
Исполнители:
Angela Gheorghiu (Анжела Георгиу) - soprano,
René Pape (Рене Папе) - bass,
Tereza Gevorgyan (Тереза Геворгян) - soprano,
Matilda Paulsson (Матильда Паульссон) - mezzo-soprano,
Roberto Gòmez-Ortiz (Роберто Гомес-Ортис) - tenor,
Ross Ramgobin (Росс Рамгобин) - baritone,
Valerie Solti (Валери Шолти) - host
Members of the Georg Solti Accademia, World Orchestra for Peace
Треклист:
01. Wolfgang Amadeus Mozart - Le Nozze di Figaro (Overture)
02. Richard Strauss - Don Juan, Op. 20, TrV 156
03. Wolfgang Amadeus Mozart - Die Zauberflöte (Act II: In diesen heil’gen Hallen)
04. Giuseppe Verdi - La Traviata (Act III: Addio del passato)
05. Wolfgang Amadeus Mozart - Don Giovanni (Act I: La ci darem la mano)
06. Giuseppe Verdi - Rigoletto ((Act III: Bella figlia dell’amore)
07. Gustav Mahler - Symphony No. 5 in C sharp minor (IV. Adagietto)
08. Béla Bartók - Concerto for Orchestra, BB 123
09. Encore: John Philip Sousa - Stars and Stripes Forever
Описание: 21 октября 2012 г. в чикагском отеле "Оркестр мира" праздновали 100-летие сэра Георга Шолти. Ансамбль "Оркестр мира" обязан своим существованием своему основателю - Георгу Шолти, который страстно верил в силу музыки и музыкантов, которые могли быть послами мира.
В этот памятный вечер, организованный Валери Шолти - вдовой Г. Шолти при участии солистов мировой величины, таких как Анжела Георгиу и Рене Папе, а также членов Академии Георга Шолти, была представлена музыка, которая сыграла значительную роль в жизни и карьере Шолти.
Кроме отрывков из опер Моцарта "Свадьба Фигаро", "Волшебная Флейта" и "Дон Жуан", опер Верди "Травиата" и " Риголетто", в этот концерт вошли прекрасный музыкальный фрагмент "Adagietto" из V-й симфонии Малера, Штрауса "Дон Жуан" и концерта для оркестра Бартока.
Дирижер Валерий Гергиев, приятель Георг Шолти, вместе с леди Валери Шолти и "Оркестром Мира" сохраняют память о Георге Шолти.

Оригинальное описание

The Solti Centenary Concert in Chicago celebrated Sir Georg Soltis 100th birthday on October 21, 2012, featuring the World Orchestra for Peace. This unique ensemble owes its existence to the vision of its founder, Sir Georg Solti, who believed passionately in peace and the power of music and musicians to be ambassadors for peace.
Charmingly hosted by Soltis widow, Lady Valerie Solti, and featuring soloists such as Angela Gheorghiu and René Pape as well as members of the Georg Solti Accademia, this memorable evening presents musical highlights, all of which played a significant role in Soltis life and career. Besides excerpts from Mozarts Le Nozze di Figaro, Die Zauberflöte and Don Giovanni or Verdis La Traviata and Rigoletto, this concert finds lovely musical moments in the Adagietto from Mahlers Fifth Symphony, Strauss Don Juan and Bartóks masterful Concerto for Orchestra. Sousas Stars and Stripes Forever as the encore closes the performance with a smash.
Качество видео: BDRip
Формат/Контейнер: MKV
Видео кодек: H.264
Аудио кодек: AC3
Видео поток: H.264, 1280x720, 5957 kbps, 29.970 fps
Аудио поток: AC3, 448 kbps, 48 kHz, 6 ch. AC3, 448 kbps, 48 kHz, 2 ch

MediaInfo

Общее
Уникальный идентификатор : 196040376287892198007127960814019267487 (0x937C00CB2C60B5C3AC1343C58845CB9F)
Полное имя : W:\Torrent_4\Solti Centenary Concert (2012) (BDRip 720p, AC3 5.1).mkv
Формат : Matroska
Версия формата : Version 4 / Version 2
Размер файла : 5,47 Гбайт
Продолжительность : 1 ч. 52 м.
Режим общего битрейта : Переменный
Общий поток : 6992 Кбит/сек
Дата кодирования : UTC 2015-03-07 13:14:31
Программа кодирования : mkvmerge v7.7.0 ('Six Voices') 64bit built on Feb 28 2015 23:39:33
Библиотека кодирования : libebml v1.3.1 + libmatroska v1.4.2
DURATION : 01:52:00.032000000
NUMBER_OF_FRAMES : 210001
NUMBER_OF_BYTES : 376321792
_STATISTICS_WRITING_APP : mkvmerge v7.7.0 ('Six Voices') 64bit built on Feb 28 2015 23:39:33
_STATISTICS_WRITING_DATE_UTC : 2015-03-07 13:14:31
_STATISTICS_TAGS : BPS DURATION NUMBER_OF_FRAMES NUMBER_OF_BYTES
Видео
Идентификатор : 1
Формат : AVC
Формат/Информация : Advanced Video Codec
Профиль формата : Main@L4.1
Параметр CABAC формата : Да
Параметр ReFrames формата : 3 кадра
Параметр GOP формата : M=4, N=29
Идентификатор кодека : V_MPEG4/ISO/AVC
Продолжительность : 1 ч. 52 м.
Вид битрейта : Переменный
Битрейт : 5957 Кбит/сек
Максимальный битрейт : 8000 Кбит/сек
Ширина : 1280 пикселей
Высота : 720 пикселей
Соотношение сторон : 16:9
Режим частоты кадров : Постоянный
Частота кадров : 29,970 кадров/сек
Стандарт вещания : NTSC
Цветовое пространство : YUV
Субдискретизация насыщенности : 4:2:0
Битовая глубина : 8 бит
Тип развёртки : Прогрессивная
Бит/(Пиксели*Кадры) : 0.216
Размер потока : 4,66 Гбайт (85%)
Язык : English
Default : Да
Forced : Нет
colour_range : Limited
Аудио #1
Идентификатор : 2
Формат : AC-3
Формат/Информация : Audio Coding 3
Расширение режима : CM (complete main)
Параметр Endianness формата : Big
Идентификатор кодека : A_AC3
Продолжительность : 1 ч. 52 м.
Вид битрейта : Постоянный
Битрейт : 448 Кбит/сек
Каналы : 6 каналов
Расположение каналов : Front: L C R, Side: L R, LFE
Частота : 48,0 КГц
Битовая глубина : 16 бит
Метод сжатия : С потерями
Размер потока : 359 Мбайт (6%)
Заголовок : AC3 5.1
Язык : English
Default : Да
Forced : Нет
Аудио #2
Идентификатор : 3
Формат : AC-3
Формат/Информация : Audio Coding 3
Расширение режима : CM (complete main)
Параметр Endianness формата : Big
Идентификатор кодека : A_AC3
Продолжительность : 1 ч. 52 м.
Вид битрейта : Постоянный
Битрейт : 448 Кбит/сек
Каналы : 2 канала
Расположение каналов : Front: L R
Частота : 48,0 КГц
Битовая глубина : 16 бит
Метод сжатия : С потерями
Размер потока : 359 Мбайт (6%)
Заголовок : AC3 2.0
Язык : English
Default : Нет
Forced : Нет

Скриншоты


Blu-ray



Показать сообщения:    

Текущее время: 07-Дек 00:54

Часовой пояс: UTC + 3


Вы не можете начинать темы
Вы не можете отвечать на сообщения
Вы не можете редактировать свои сообщения
Вы не можете удалять свои сообщения
Вы не можете голосовать в опросах
Вы не можете прикреплять файлы к сообщениям
Вы не можете скачивать файлы