Жорж Бизе - Кармен (Большой театр Лисеу; Каликсто Бьейто, Джонатан Хэсвелл; Марк Пиойе) / Georges Bizet - Carmen (Gran Teatre del Liceu; Calixto Bieito, Jonathan Haswell; Marc Piollet) [2010, Opera, BDRip 720p]


 

[Цитировать]

Жорж Бизе - Кармен / Georges Bizet - Carmen
Год выпуска: 2010
Лейбл: C MAJOR, Liceu opera Barcelona
Страна-производитель: США
Жанр: Opera
Продолжительность: 02:35:56
Язык: Французский
Субтитры: Английские, испанские, французские, немецкие, итальянские, корейские, каталонские
Режиссер: Calixto Bieito (Каликсто Бьейто), Jonathan Haswell (Джонатан Хэсвелл)
Дирижер: Marc Piollet (Марк Пиойе)
Исполнители:
Béatrice Uria-Monzon (Беатрис Урия-Монзон) - Carmen,
Roberto Alagna (Роберто Аланья) - Don Jose,
Marina Poplavskaya (Марина Поплавская) - Micaëla,
Erwin Schrott (Эрвин Шротт) - Escamillo,
Eliana Bayón (Элиана Байон) - Frasquita,
Itxaro Mentxaka (Ичаро Менчака) - Mercédès,
Marc Canturri (Марк Кантурри) - Le Dancaïre,
Francisco Vas (Франсиско Вас) - Le Remendado,
Àlex Sanmartí (Алекс Санмарти) - Moralès,
Josep Ribot (Джозеп Рибот) - Zuniga
Cor Vivaldi – Petits Cantors de Catalunya (Хор Вивальди из Дворца каталонский музыки), Liceu Grand Theatre Chorus and Orchestra (оркестр и хор Большого театра Лисеу Барселоны)
Описание: Современная интерпретация знаменитой оперы. Кармен, работница табачной фабрики участвует в драке на ножах с другой работницей. Ее арестовывают, но она увлекает солдата Хозе и бежит. Он становится ее возлюбленным и контрабандистом, однако, Кармен не любит бедного Хозе и он пытается вернуть ее любовь. «Кармен» — подлинный шедевр оперного искусства. Музыка, полная жизни и света, воспевает свободу человеческой личности. Глубоко правдив драматизм столкновений и конфликтов. Герои обрисованы сочно, темпераментно, во всей психологической сложности. Если в характеристике Хозе господствует стихия песни-романса, подчёркивающая его душевную мягкость, то непокорный дух Кармен раскрывается в темпераментных ритмах и напевах испанских народных песен.

Оригинальное описание

In this prestigious production at the Gran Teatre del Liceu, world-famous and highly controversial stage director Calixto Bieito, admired for his raw and evocative stagings, sees in Carmen the embodiment of the mythical gypsy and touches upon sensitive issues such as racism, xenophobia and right-wing politics. Bieito conjures up a sensual and realistic atmosphere full of powerful symbolism. An outstanding quartet of vocal stars, led by a “splendid and sensual” (El Periódico) Béatrice Uria-Monzon in the title role, delivers one of the most exciting Carmens in recent years: Roberto Alagna as Don José, Erwin Schrott as Escamillo and Marina Poplavskya as Micaëla.
Recorded live from the Gran Teatre del Liceu, October 2010.
Либретто
Качество видео: BDRip
Формат/Контейнер: MKV
Видео кодек: H.264
Аудио кодек: AC3
Видео поток: H.264, 1280x720, 6130 kbps, 29.970 fps
Аудио поток: AC3, 448 kbps, 48 kHz, 6 ch. AC3, 448 kbps, 48 kHz, 2 ch

MediaInfo

Общее
Уникальный идентификатор : 216433258744749322844613294409530195702 (0xA2D387869CF1ADB28BBD02F2CEB7BEF6)
Полное имя : W:\Torrent_4\Бизе - Кармен (Gran Teatre del Liceu) (2010) (BDRip 720, AC3 5.1).mkv
Формат : Matroska
Версия формата : Version 4 / Version 2
Размер файла : 7,79 Гбайт
Продолжительность : 2 ч. 35 м.
Режим общего битрейта : Переменный
Общий поток : 7169 Кбит/сек
Дата кодирования : UTC 2015-03-07 11:38:57
Программа кодирования : mkvmerge v7.7.0 ('Six Voices') 64bit built on Feb 28 2015 23:39:33
Библиотека кодирования : libebml v1.3.1 + libmatroska v1.4.2
DURATION : 02:35:31.968000000
NUMBER_OF_FRAMES : 291624
NUMBER_OF_BYTES : 522590208
_STATISTICS_WRITING_APP : mkvmerge v7.7.0 ('Six Voices') 64bit built on Feb 28 2015 23:39:33
_STATISTICS_WRITING_DATE_UTC : 2015-03-07 11:38:57
_STATISTICS_TAGS : BPS DURATION NUMBER_OF_FRAMES NUMBER_OF_BYTES
Видео
Идентификатор : 1
Формат : AVC
Формат/Информация : Advanced Video Codec
Профиль формата : Main@L4.1
Параметр CABAC формата : Да
Параметр ReFrames формата : 3 кадра
Идентификатор кодека : V_MPEG4/ISO/AVC
Продолжительность : 2 ч. 35 м.
Вид битрейта : Переменный
Битрейт : 6130 Кбит/сек
Максимальный битрейт : 8000 Кбит/сек
Ширина : 1280 пикселей
Высота : 720 пикселей
Соотношение сторон : 16:9
Режим частоты кадров : Постоянный
Частота кадров : 29,970 кадров/сек
Стандарт вещания : NTSC
Цветовое пространство : YUV
Субдискретизация насыщенности : 4:2:0
Битовая глубина : 8 бит
Тип развёртки : Прогрессивная
Бит/(Пиксели*Кадры) : 0.222
Размер потока : 6,66 Гбайт (86%)
Язык : English
Default : Да
Forced : Нет
colour_range : Limited
Аудио #1
Идентификатор : 2
Формат : AC-3
Формат/Информация : Audio Coding 3
Расширение режима : CM (complete main)
Параметр Endianness формата : Big
Идентификатор кодека : A_AC3
Продолжительность : 2 ч. 35 м.
Вид битрейта : Постоянный
Битрейт : 448 Кбит/сек
Каналы : 6 каналов
Расположение каналов : Front: L C R, Side: L R, LFE
Частота : 48,0 КГц
Битовая глубина : 16 бит
Метод сжатия : С потерями
Размер потока : 498 Мбайт (6%)
Заголовок : AC3 5.1
Язык : French
Default : Да
Forced : Нет
Аудио #2
Идентификатор : 3
Формат : AC-3
Формат/Информация : Audio Coding 3
Расширение режима : CM (complete main)
Параметр Endianness формата : Big
Идентификатор кодека : A_AC3
Продолжительность : 2 ч. 35 м.
Вид битрейта : Постоянный
Битрейт : 448 Кбит/сек
Каналы : 2 канала
Расположение каналов : Front: L R
Частота : 48,0 КГц
Битовая глубина : 16 бит
Метод сжатия : С потерями
Размер потока : 498 Мбайт (6%)
Заголовок : AC3 2.0
Язык : French
Default : Нет
Forced : Нет

Скриншоты


Blu-ray



Показать сообщения:    

Текущее время: 05-Дек 01:27

Часовой пояс: UTC + 3


Вы не можете начинать темы
Вы не можете отвечать на сообщения
Вы не можете редактировать свои сообщения
Вы не можете удалять свои сообщения
Вы не можете голосовать в опросах
Вы не можете прикреплять файлы к сообщениям
Вы не можете скачивать файлы