[TR24][SM][OF] Anton Bruckner - Symphony No. 7 - Bernard Haitink & Chicago Symphony Orchestra - 2007 (Classical)


Статистика раздачи [Обновить пиров]
Размер:  997 MB   |    Зарегистрирован:  8 месяцев 18 дней   |    Скачан:  1 раз

Полного источника не было: 1 месяц 1 день

 
   
 
 
 

[Цитировать]

·
Anton Bruckner (1824 – 1896)Жанр: Symphony
Носитель: Official Digital Download
Год издания диска: 2007
Издатель(лейбл): CSO·RESOUND
Номер по каталогу: CSOR 901 704
Продолжительность: 01:07:54
Наличие сканов в содержимом раздачи: cover & booklet
Контейнер: FLAC (*.flac)
Разрядность: 24/88,2
Количество каналов: 2.0
Формат: tracks
Источник: hdtracks.com
Pелизер: WEB (thanks to the original customer)
Bernard Haitink
Chicago Symphony Orchestra
http://www.hdtracks.com/bruckner-symphony-no-558

Треклист

Symphony No. 7 in E Major (1885 version)1954 Leopold Nowak edition
01 Allegro moderato 21:33
02 Adagio: Sehr feierlich und sehr langsam 22:26
03 Scherzo: Sehr schnell 10:30
04 Finale: Bewegt, doch nicht schnell 13:01

Dynamic Range Meter

foobar2000 1.2.6 / Dynamic Range Meter 1.1.1
log date: 2015-03-07 22:21:14
--------------------------------------------------------------------------------
Analyzed: Chicago Symphony Orchestra, Bernard Haitink / Bruckner: Symphony No. 7 in E Major
--------------------------------------------------------------------------------
DR Peak RMS Duration Track
--------------------------------------------------------------------------------
DR15 -1.05 dB -23.34 dB 21:24 01-Symphony No. 7 in E Major - I. Allegro moderato
DR15 -0.53 dB -24.54 dB 22:27 02-Symphony No. 7 in E Major - II. Adagio: Sehr feierlich und sehr langsam
DR14 0.00 dB -20.79 dB 10:30 03-Symphony No. 7 in E Major - III. Scherzo: Sehr schnell
DR14 0.00 dB -19.99 dB 13:39 04-Symphony No. 7 in E Major - IV. Finale: Bewegt, doch nicht schnell
--------------------------------------------------------------------------------
Number of tracks: 4
Official DR value: DR15
Samplerate: 88200 Hz
Channels: 2
Bits per sample: 24
Bitrate: 2046 kbps
Codec: FLAC
================================================================================
[teatrix.ru].t20545.torrent 
Торрент: Зарегистрирован [ 2016-03-20 00:05 ] · 1FA2BEA6CB9CDFFCB06D992C8E5A3C9F34106683

Скачать .torrent

Скачать

21 KB

Статус: проверено
Скачан: 1 раз
Размер: 997 MB
terms.php



Быстрый ответ

Имя:

      
Для отправки сообщений необходимо включить JavaScript
Показать сообщения:    

Текущее время: 07-Дек 21:16

Часовой пояс: UTC + 3


Вы можете начинать темы
Вы можете отвечать на сообщения
Вы не можете редактировать свои сообщения
Вы не можете удалять свои сообщения
Вы не можете голосовать в опросах
Вы не можете прикреплять файлы к сообщениям
Вы можете скачивать файлы