[TR24][OF] Frédéric (Frederic) Chopin - Piano Concerto No.2, Ballade No.4, Berceuse, Polonaise Heroique (Nelson Freire, Gürzenich-Orchester Koln, Lionel Bringuier) - 2015 (Classical, Romantic)


Статистика раздачи [Обновить пиров]
Размер:  1.12 GB   |    Зарегистрирован:  8 месяцев 18 дней   |    Скачан:  0 раз

Полного источника не было: Никогда

 
   
 
 
 

[Цитировать]

Frédéric Chopin
Piano Concerto No.2 · Ballade No.4 · Berceuse · Polonaise Héroïque
Nelson Freire · Gürzenich-Orchester Köln · Lionel Bringuier
- Год издания: 2015
Жанр: Classical, Romantic
Издатель (лейбл): Decca Records
Продолжительность: 01:05:41
Наличие сканов: Sleeve, Digital Booklet
- -
Frédéric Chopin (1810-1849)
Impromptu No.3 in G Flat Major, Op.51
01. Impromptu No.3 in G flat major (4:59)
Ballade No.4 in F minor, Op.52
02. Ballade No.4 in F minor (10:24)
Berceuse in D flat major, Op.57
03. Berceuse in D flat major (4:09)
3 Mazurkas, Op.50
04. No.1 in G major: Vivace (2:12)
05. No.2 in A flat major: Allegretto (2:46)
06. No.3 in C sharp minor: Moderato (4:37)
Polonaise in A flat major, Op.53 “Polonaise Héroïque”
07. Polonaise in A flat major (6:48)
Piano Concerto No.2 in F minor, Op.21
08. I. Maestoso (13:23)
09. II. Larghetto (8:16)
10. III. Allegro vivace (8:08)

-
Nelson Freire (piano)
Gürzenich-Orchester Köln (#8-10)
Lionel Bringuier (conductor)
Recorded: Philharmonie, Cologne, 3–5 March 2013 (Concerto)
Friedrich-Ebert-Halle, Hamburg/Harburg, 19 & 20 December 2013 (Solo works)
-Контейнер: FLAC (*.flac)
Тип рипа: tracks
Разрядность: 24bit / 96kHz
Количество каналов: 2.0

О релизе
"Instrumental Choice ... positively incandescent ... in the miraculous and miniature Berceuse, Freire comes close to perfection ... his radiant sound and lyricism shot through with an incisive technique, warmly recorded."
- BBC Music Magazine

ОтчётыДинамический диапазон

foobar2000 1.2.2 / Dynamic Range Meter 1.1.1
log date: 2015-03-08 01:28:14
--------------------------------------------------------------------------------
Analyzed: Nelson Freire, Gürzenich-Orchester Köln, Lionel Bringuier / Chopin: Piano Concerto No.2 (1-3)
Nelson Freire / Chopin: Piano Concerto No.2 (4-10)
--------------------------------------------------------------------------------
DR Peak RMS Duration Track
--------------------------------------------------------------------------------
DR13 -0.28 dB -18.26 dB 13:23 ?-Piano Concerto No.2 in F minor Op.21 - I. Maestoso
DR15 -1.82 dB -22.87 dB 8:16 ?-Piano Concerto No.2 in F minor Op.21 - II. Larghetto
DR12 -0.51 dB -17.09 dB 8:08 ?-Piano Concerto No.2 in F minor Op.21 - III. Allegro vivace
DR13 -4.05 dB -23.26 dB 4:59 ?-Impromptu No.3 in G flat major Op.51
DR13 -0.35 dB -18.63 dB 10:24 ?-Ballade No.4 in F minor Op.52
DR13 -10.30 dB -27.51 dB 4:09 ?-Berceuse in D flat major Op.57
DR12 -2.95 dB -21.50 dB 2:12 ?-3 Mazurkas, Op.50 - No.1 in G major: Vivace
DR13 -5.02 dB -21.90 dB 2:46 ?-3 Mazurkas, Op.50 - No.2 in A flat major: Allegretto
DR13 -3.61 dB -22.04 dB 4:37 ?-3 Mazurkas, Op.50 - No.3 in C sharp minor: Moderato
DR11 -0.37 dB -14.98 dB 6:48 ?-Polonaise in A flat major, Op.53 “Polonaise héroïque”
--------------------------------------------------------------------------------
Number of tracks: 10
Official DR value: DR13
Samplerate: 96000 Hz
Channels: 2
Bits per sample: 24
Bitrate: 2323 kbps
Codec: FLAC
================================================================================

Скриншот спектра частот

Доп. информация

При скачивании, если необходимо, переименуйте папку, в которой будет находиться альбомБольшая просьба к скачавшим поддерживать раздачу! Помогайте другим, ведь вам тоже может понадобиться помощь!Не забываем говорить "Спасибо"!Комментарии приветствуются!
[teatrix.ru].t20549.torrent 
Торрент: Зарегистрирован [ 2016-03-20 00:05 ] · 9461E2E6C8AA0643443CB00BF0A7246F64B46DA5

Скачать .torrent

Скачать

13 KB

Статус: проверено
Скачан: 0 раз
Размер: 1.12 GB
terms.php



Быстрый ответ

Имя:

      
Для отправки сообщений необходимо включить JavaScript
Показать сообщения:    

Текущее время: 07-Дек 00:49

Часовой пояс: UTC + 3


Вы можете начинать темы
Вы можете отвечать на сообщения
Вы не можете редактировать свои сообщения
Вы не можете удалять свои сообщения
Вы не можете голосовать в опросах
Вы не можете прикреплять файлы к сообщениям
Вы можете скачивать файлы