(Classical) Elgar - Cello Concerto op.85, Чайковский - "Вариации на тему рококо" op.33, Dvorak - Rondo op.94, Klid (Silent Woods) op.68/5 - (Jean-Guihen Queyras, Jiri Belohlavek, BBC Symphony Orchestra) - 2013, FLAC (image+.cue) lossless


Статистика раздачи [Обновить пиров]
Размер:  261 MB   |    Зарегистрирован:  8 месяцев 15 дней   |    Скачан:  1 раз

Полного источника не было: 8 месяцев

 
   
 
 
 

[Цитировать]

Edward Elgar:
Cello Concerto op.85 in E minor
Antonín Dvořák:
Rondo op.94, Klid (Silent Woods) op.68/5
Пётр Ильич Чайковский
"Вариации на тему рококо" op.33 для виолончели с оркестром

Жанр: Classical
Страна-производитель диска: Austria
Год издания диска: 2013
Издатель (лейбл): Harmonia Mundi
Номер по каталогу: HMC 902148
Дата записи: 2012
Аудиокодек: FLAC
Тип рипа: image+.cue
Битрейт аудио: lossless
Продолжительность: 60'44
Источник: собственный рип
Наличие сканов в содержимом раздачи: да
Треклист:
Edward Elgar
Cello Concerto op.85 in E minor
1. I. Adagio - Moderato 8'06
2. II. Lento - Allegro molto 4'30
3. III. Adagio 4'25
4. IV. Allegro - Moderato - Allegro ma non troppo - Poco più lento - Adagio 10'52
Antonín Dvořák
5. Rondo op.94 7'51
6. Klid (Silent Woods) op.68/5 5'59
Пётр Ильич Чайковский
Вариации на тему рококо op.33 для виолончели с оркестром
7. Moderato assai quasi Andante 2'27
Thema: Moderato semplice
8. Var. I: Tempo della Thema 0'56
9. Var. II: Tempo della Thema 1'13
10. Var. III: Andante sostenuto 3'46
11. Var. IV: Andante grazioso 1'59
12. Var. V: Allegro moderato 3'30
13. Var. VI: Andante 2'36
14. Var. VII: e Coda: Allegro vivo 2'13
Исполнители:
Jean-Guihen Queyras
Jiří Bĕlohlávek
BBC Symphony Orchestra

Лог создания рипа

Exact Audio Copy V1.0 beta 3 from 29. August 2011
Отчёт EAC об извлечении, выполненном 7. марта 2015, 14:30
Jean-Guihen Queyras, BBC Symphony Orchestra, J. Belohlavek / Elgar Cello Concerto, Tchaikovsky Rococo Variations
Дисковод: Optiarc DVD RW AD-7261S Adapter: 0 ID: 3
Режим чтения : Достоверность
Использование точного потока : Да
Отключение кэша аудио : Да
Использование указателей C2 : Нет
Коррекция смещения при чтении : 48
Способность читать области Lead-in и Lead-out : Нет
Заполнение пропущенных сэмплов тишиной : Да
Удаление блоков с тишиной в начале и конце : Нет
При вычислениях CRC использовались нулевые сэмплы : Да
Интерфейс : Встроенный Win32-интерфейс для Win NT/2000
Выходной формат : Пользовательский кодировщик
Выбранный битрейт : 768 kBit/s
Качество : Высокий
Добавление ID3-тега : Нет
Утилита сжатия : C:\Program Files\Exact Audio Copy\FLAC\FLAC.EXE
Дополнительные параметры : -V -8 -T "Date=%year%" -T "Genre=%genre%" %source%
TOC извлечённого CD
Трек | Старт | Длительность | Начальный сектор | Конечный сектор
---------------------------------------------------------------------
1 | 0:00.00 | 8:06.04 | 0 | 36453
2 | 8:06.04 | 4:30.51 | 36454 | 56754
3 | 12:36.55 | 4:25.31 | 56755 | 76660
4 | 17:02.11 | 11:00.01 | 76661 | 126161
5 | 28:02.12 | 7:53.52 | 126162 | 161688
6 | 35:55.64 | 6:02.54 | 161689 | 188892
7 | 41:58.43 | 2:27.32 | 188893 | 199949
8 | 44:26.00 | 0:56.09 | 199950 | 204158
9 | 45:22.09 | 1:13.43 | 204159 | 209676
10 | 46:35.52 | 3:46.03 | 209677 | 226629
11 | 50:21.55 | 1:59.59 | 226630 | 235613
12 | 52:21.39 | 3:30.28 | 235614 | 251391
13 | 55:51.67 | 2:36.43 | 251392 | 263134
14 | 58:28.35 | 2:13.58 | 263135 | 273167
Характеристики диапазона извлечения и сообщения об ошибках
Выбранный диапазон
Имя файла F:\My musica\Quyeyras Belohlavek - Elgar Tchaikovsky\Queyras Belohlavek - Elgar Tchaikovsky.wav
Пиковый уровень 84.8 %
Скорость извлечения 4.0 X
Качество диапазона 100.0 %
CRC теста 24955536
CRC копии 24955536
Копирование... OK
Ошибок не произошло
AccurateRip: сводка
Трек 1 : извлечено точно (доверие 15) [54AFE4EB] (AR v2)
Трек 2 : извлечено точно (доверие 15) [0444EB02] (AR v2)
Трек 3 : извлечено точно (доверие 15) [E90BB3A1] (AR v2)
Трек 4 : извлечено точно (доверие 15) [6944D0D9] (AR v2)
Трек 5 : извлечено точно (доверие 15) [EE68F7F3] (AR v2)
Трек 6 : извлечено точно (доверие 15) [D8D6E9D7] (AR v2)
Трек 7 : извлечено точно (доверие 15) [6E3AA673] (AR v2)
Трек 8 : извлечено точно (доверие 15) [D275F357] (AR v2)
Трек 9 : извлечено точно (доверие 15) [FDCD084A] (AR v2)
Трек 10 : извлечено точно (доверие 15) [B1217EA4] (AR v2)
Трек 11 : извлечено точно (доверие 15) [067A3FBE] (AR v2)
Трек 12 : извлечено точно (доверие 15) [DDE9A877] (AR v2)
Трек 13 : извлечено точно (доверие 15) [1CD25228] (AR v2)
Трек 14 : извлечено точно (доверие 15) [4E680CC5] (AR v2)
Все треки извлечены точно
Конец отчёта
---- CUETools DB Plugin V2.1.3
[CTDB TOCID: o83Bc.NSmjrvTP1BPmS7gNmnoRw-] found, Submit result: o83Bc.NSmjrvTP1BPmS7gNmnoRw- has been confirmed
[eb30f35d] (10/10) Accurately ripped
==== Контрольная сумма отчёта FFF5BDE3CD35CD5FC0B2BF55696753BD900933CFA3B68BC444174C7CC6BF0723 ====

Содержание индексной карты (.CUE)

REM GENRE Classical
REM DATE 2013
REM DISCID C40E3A0E
REM COMMENT "ExactAudioCopy v1.0b3"
PERFORMER "Jean-Guihen Queyras, BBC Symphony Orchestra, J. Belohlavek"
TITLE "Elgar Cello Concerto, Tchaikovsky Rococo Variations"
FILE "Queyras Belohlavek - Elgar Tchaikovsky.flac" WAVE
TRACK 01 AUDIO
TITLE "Cello Concerto op.85. I. Adagio - Moderato"
PERFORMER "Jean-Guihen Queyras, BBC Symphony Orchestra, J. Belohlavek"
ISRC FRZ141211010
INDEX 01 00:00:00
TRACK 02 AUDIO
TITLE "Cello Concerto op.85. II. Lento - Allegro molto"
PERFORMER "Jean-Guihen Queyras, BBC Symphony Orchestra, J. Belohlavek"
ISRC FRZ141211020
INDEX 01 08:06:04
TRACK 03 AUDIO
TITLE "Cello Concerto op.85. III. Adagio"
PERFORMER "Jean-Guihen Queyras, BBC Symphony Orchestra, J. Belohlavek"
ISRC FRZ141211030
INDEX 01 12:36:55
TRACK 04 AUDIO
TITLE "Cello Concerto op.85. IV. Allegro - Moderato - Allegro non troppo - Poco piu ..."
PERFORMER "Jean-Guihen Queyras, BBC Symphony Orchestra, J. Belohlavek"
ISRC FRZ141211040
INDEX 01 17:02:11
TRACK 05 AUDIO
TITLE "Rondo op.94 "
PERFORMER "Jean-Guihen Queyras, BBC Symphony Orchestra, J. Belohlavek"
ISRC FRZ141211050
INDEX 00 27:55:05
INDEX 01 28:02:12
TRACK 06 AUDIO
TITLE "Klid (Silent Woods) op.68/5"
PERFORMER "Jean-Guihen Queyras, BBC Symphony Orchestra, J. Belohlavek"
ISRC FRZ141211060
INDEX 00 35:53:37
INDEX 01 35:55:64
TRACK 07 AUDIO
TITLE "Variations on a Rococo Theme op.33. Thema: Moderato semplice"
PERFORMER "Jean-Guihen Queyras, BBC Symphony Orchestra, J. Belohlavek"
ISRC FRZ141211070
INDEX 00 41:55:47
INDEX 01 41:58:43
TRACK 08 AUDIO
TITLE "Variations on a Rococo Theme op.33. Var. I: Tempo della Thema"
PERFORMER "Jean-Guihen Queyras, BBC Symphony Orchestra, J. Belohlavek"
ISRC FRZ141211080
INDEX 01 44:26:00
TRACK 09 AUDIO
TITLE "Variations on a Rococo Theme op.33. Var. II: Tempo della Thema"
PERFORMER "Jean-Guihen Queyras, BBC Symphony Orchestra, J. Belohlavek"
ISRC FRZ141211090
INDEX 01 45:22:09
TRACK 10 AUDIO
TITLE "Variations on a Rococo Theme op.33. Var. III: Andante sostenuto"
PERFORMER "Jean-Guihen Queyras, BBC Symphony Orchestra, J. Belohlavek"
ISRC FRZ141211100
INDEX 01 46:35:52
TRACK 11 AUDIO
TITLE "Variations on a Rococo Theme op.33. Var. IV: Andante grazioso"
PERFORMER "Jean-Guihen Queyras, BBC Symphony Orchestra, J. Belohlavek"
ISRC FRZ141211110
INDEX 01 50:21:55
TRACK 12 AUDIO
TITLE "Variations on a Rococo Theme op.33. Var. V: Allegro moderato"
PERFORMER "Jean-Guihen Queyras, BBC Symphony Orchestra, J. Belohlavek"
ISRC FRZ141211120
INDEX 01 52:21:39
TRACK 13 AUDIO
TITLE "Variations on a Rococo Theme op.33. Var. VI: Andante"
PERFORMER "Jean-Guihen Queyras, BBC Symphony Orchestra, J. Belohlavek"
ISRC FRZ141211130
INDEX 01 55:51:67
TRACK 14 AUDIO
TITLE "Variations on a Rococo Theme op.33. Var. VII e Coda: Allegro vivo"
PERFORMER "Jean-Guihen Queyras, BBC Symphony Orchestra, J. Belohlavek"
ISRC FRZ141211140
INDEX 01 58:28:35
Доп. информация: Оказывается, идея концерта пришла Эльгару во время удаления аденоидов. Теперь многое становится понятным...
[teatrix.ru].t20550.torrent 
Торрент: Зарегистрирован [ 2016-03-20 00:05 ] · 1FECE8753A977B9500C6D47D16DBA68987FF14BE

Скачать .torrent

Скачать

12 KB

Статус: проверено
Скачан: 1 раз
Размер: 261 MB
terms.php



Быстрый ответ

Имя:

      
Для отправки сообщений необходимо включить JavaScript
Показать сообщения:    

Текущее время: 04-Дек 21:21

Часовой пояс: UTC + 3


Вы можете начинать темы
Вы можете отвечать на сообщения
Вы не можете редактировать свои сообщения
Вы не можете удалять свои сообщения
Вы не можете голосовать в опросах
Вы не можете прикреплять файлы к сообщениям
Вы можете скачивать файлы