[TR24][OF] Claude Debussy - La mer; Jeux (London Symphony Orchestra, Valery Gergiev / Валерий Гергиев) - 2011 (Classical)

DL-List and Torrent activity [Update пиров]
Size:  518 MB   |    Registered:  7 months 1 day   |    Completed:  0 times

Seeder not seen: Never



Claude Debussy
La mer | Jeux
London Symphony Orchestra · Valery Gergiev
- Год издания: 2011
Жанр: Classical
Издатель (лейбл): LSO Live
Продолжительность: 00:56:07
Наличие сканов: Covers, Digital Booklet
- -
Claude Debussy (1862-1918)
Prélude à l'après-midi d'un faune L87 (1892)
01. Prélude à l'après-midi d'un faune (11:46)
La Mer: Trois esquisses symphoniques pour orchestre (1903-1905)
02. De l'aube à midi sur la mer: Très lent (10:00)
03. Jeux de vagues: Allegro (7:10)
04. Dialogue du vent et de la mer: Animé et tumultueux (8:21)
Jeux 'Poème dansé' (1913)
05. Jeux 'Poème dansé' (18:50)

London Symphony Orchestra
Valery Gergiev (conductor)

Контейнер: FLAC (*.flac)
Тип рипа: tracks
Разрядность: 24bit / 48kHz
Количество каналов: 2.0

О релизе
One of the twentieth century's most innovative and influential composers, Debussy was a musical impressionist (a term he disliked). Prélude à l'après-midi d'un faune draws inspiration from a poem by Stéphane Mallarmé, whilst La mer, a set of symphonic sketches, vividly depicts the relationship between the waves and wind of the open sea. Jeux, one of Debussy's final orchestral works, was written for Diaghilev and the Ballets Russes.
A ‘magic flute’ (courtesy of Gareth Davies) opens Faune and this Debussy collection, the playing from the LSO tender and suggestive, the harp rippling magically, the music made hypnotic in its fluctuations and even a touch surreal, Valery Gergiev avoiding stasis and keeping the music potent. Great! And beautifully recorded, too.
Ideally Jeux should follow (from one elusive masterpiece to another), but La mer (also music of genius but which would have been suitably invigorating to close the disc) comes next, mysterious enough in its opening measures but, at times, curiously failing to engage, as if the LSO was collectively on autopilot despite some precise, well-gauged and colourful playing. Maybe it’s the relative remoteness of the recording that distances some of the playing in a way that doesn’t happen in the Barbican Hall (and which, in quieter passages, any increases in amplifier volume cannot rectify; nevertheless fortissimos can be too overwhelming for this music, the microphones honing in for the ‘big’ moments). Gergiev is more engaged with the score’s dramatic pages; and, although he obtains unfailingly responsive playing, there is a peculiar lack of meaningful incident and involvement. Those ‘big’ moments (the end of the first movement, when midday is reached, for example) develop greater thrall, if too much aural brightness, and at this particular point more of the gong would have been welcome. The nimbleness required for ‘Play of the Waves’ is there in spades, flecks of lights on the water and the interaction of currents vividly conveyed, yet it is not until we are in choppier waters that the performance, once again, develops requisite tension. The finale, ‘Dialogue of the Wind and the Sea’, responds best to the full-on approach, a dominance of cymbal colour aside, and there is much that is excitingly bracing here, even if one can sense it was probably too loud in the hall. Gergiev omits the brass fanfares (here ‘missing’ between 6’49” and 7’01”), which is fair enough given their ad lib status, if regrettable. Others will welcome this textural exclusion; one of those debating points that will never be resolved. For La mer, such as Ansermet (Decca, four recordings), Désormière (Supraphon/Czech Philharmonic), Fournet (also Supraphon/Czech Phil) and Leonard Slatkin (Telarc) continue to take the honours.
Jeux returns us to the enchanted world of 'Faune'. The detailing here is vivid and lucid (albeit trumpets are rather edgy in fortissimos and too dominating at times). Yet with well-judged tempos and with an expressive freedom, this is quite a moreish performance: the music rustles, fluctuates and animates—the use of antiphonal violins opens things up—and enjoys expectant expression, all captured vibrantly by a recording that returns us to the tangibility with which 'Faune' was captured. It’s not always the subtlest account, overly brilliant and too public at times, when really it should be mysterious and confidential throughout its course; yet it is alluring and this performance exerts a strange fascination and has already notched up several listens—with a different listener reaction each time, mostly positive. Given the ballet’s storyline is a game of tennis, one is inclined to think that it is match point between Debussy and Gergiev, but the conductor is serving, possibly with an ace. --Colin Anderson, ClassicalSource.com

ОтчётыДинамический диапазон

foobar2000 1.2.2 / Dynamic Range Meter 1.1.1
log date: 2015-03-07 23:06:26
Analyzed: London Symphony Orchestra, Valery Gergiev / Debussy: La mer, Jeux & Prélude à l'après-midi d'un faune
DR Peak RMS Duration Track
DR15 -9.94 dB -31.42 dB 11:46 ?-Prélude à l'après-midi d'un faune L87
DR18 0.00 dB -26.99 dB 10:00 ?-La mer - De l'aube à midi sur la mer: Très lent
DR16 -5.07 dB -28.66 dB 7:10 ?-La mer - Jeux de vagues: Allegro
DR16 0.00 dB -23.43 dB 8:21 ?-La mer - Dialogue du vent et de la mer: Animé et tumultueux
DR19 -0.37 dB -26.67 dB 18:50 ?-Jeux 'Poème dansé'
Number of tracks: 5
Official DR value: DR17
Samplerate: 48000 Hz
Channels: 2
Bits per sample: 24
Bitrate: 1310 kbps
Codec: FLAC

Скриншот спектра частот

Доп. информация

При скачивании, если необходимо, переименуйте папку, в которой будет находиться альбомБольшая просьба к скачавшим поддерживать раздачу! Помогайте другим, ведь вам тоже может понадобиться помощь!Не забываем говорить "Спасибо"!Комментарии приветствуются!
Torrent: Registered [ 2016-03-20 00:05 ] · C0D722122C7E03B40D930C59891F810BF9272192

Download .torrent


11 KB

Status: checked
Completed: 0 times
Size: 518 MB

Quick Reply


Heads necessary to send messages to enable JavaScript
Display posts:    

Current time is: 21-Oct 19:40

All times are UTC + 3

You can post new topics in this forum
You can reply to topics in this forum
You cannot edit your posts in this forum
You cannot delete your posts in this forum
You cannot vote in polls in this forum
You cannot attach files in this forum
You can download files in this forum