(Opera) Bartok - Bluebeard's Castle, 2 versions • French (Lovano, Gilly - Orchestre Symphonic de Paris, Ansermet) • Hungarian (Szekely, Palankay - Budapest Radio Symphony Orchestra, Sebastian) - 2006, APE (image+.cue) lossless


 

[Цитировать]

Béla Bartók - Duke Bluebeard's Castle
Жанр: Opera
Страна-производитель диска: Germany
Год издания диска: 2006
Издатель (лейбл): Cantus Classics
Номер по каталогу: 5.00779
Дата записи: 1950-1951
Аудиокодек: APE
Тип рипа: image+.cue
Битрейт аудио: lossless
Продолжительность: 52'30+54'50
Источник: собственный рип
Наличие сканов в содержимом раздачи: да
Треклист:
French Version

CD1

1. Ouverture & Entree de Barbe Bleue
2. La chambre de torture
3. L'armurerie
4. Le tresor
5. Le jardin secret
6. Le royaume de Barbe Bleue
7. Les larmes
8. Les femmes de Barbe Bleue
Hungarian Version

CD2

1. Introduction & Megerkeztunk
2. Nesd Esak
3. Adok Neked
4. Nezd Hogy Denul
5. Gyere. Gyere Ted
6. Az Utolsol
7. Tudom, Tudom
8. Hajnalban Az
Исполнители:
Béla Bartók - Duke Bluebeard's Castle (1911, rev. 1912/18)
(A Kékszakállú herceg Vára)
Opera in one act
Libretto by Béla Balász
French Version
Bluebeard - Lucien Lovano, Baritone
Judith - Renee Gilly, Soprano
Orchestre Symphonic de Paris
Ernest Ansermet
Hungarian Version
Bluebeard - Mihaly Szekely, Baritone
Judith - Klara Palankay, Soprano
Budapest Radio Symphony Orchestra
Georges Sebastian

Лог создания рипа

CD1

Exact Audio Copy V1.0 beta 3 from 29. August 2011
EAC extraction logfile from 31. January 2015, 1:04
Bartók / Le Chateau de Barbe Bleue, Ansermet CD1
Used drive : TS8XDVDSTRANSCEND Adapter: 1 ID: 1
Read mode : Secure
Utilize accurate stream : Yes
Defeat audio cache : Yes
Make use of C2 pointers : No
Read offset correction : 6
Overread into Lead-In and Lead-Out : No
Fill up missing offset samples with silence : Yes
Delete leading and trailing silent blocks : No
Null samples used in CRC calculations : Yes
Used interface : Native Win32 interface for Win NT & 2000
Used output format : Monkey's Audio Lossless Encoder
Selected bitrate : High Lossless Compression
Quality : High
Add ID3 tag : Yes
Command line compressor : C:\Program Files (x86)\Exact Audio Copy\MAC\MAC.exe
TOC of the extracted CD
Track | Start | Length | Start sector | End sector
---------------------------------------------------------
1 | 0:00.00 | 12:50.71 | 0 | 57820
2 | 12:50.71 | 3:59.14 | 57821 | 75759
3 | 16:50.10 | 3:39.72 | 75760 | 92256
4 | 20:30.07 | 2:09.03 | 92257 | 101934
5 | 22:39.10 | 4:28.08 | 101935 | 122042
6 | 27:07.18 | 5:42.66 | 122043 | 147758
7 | 32:50.09 | 11:19.74 | 147759 | 198757
8 | 44:10.08 | 8:20.62 | 198758 | 236319
Range status and errors
Selected range
Filename D:\EAC\Bartók - Le Chateau de Barbe Bleue, Ansermet CD1.wav
Peak level 91.8 %
Extraction speed 2.0 X
Range quality 100.0 %
Test CRC 33DCDC0D
Copy CRC 33DCDC0D
Copy OK
No errors occurred
AccurateRip summary
Track 1 accurately ripped (confidence 2) [F233233D] (AR v1)
Track 2 accurately ripped (confidence 2) [CA2C2A5A] (AR v1)
Track 3 accurately ripped (confidence 2) [8DDC5FFD] (AR v1)
Track 4 accurately ripped (confidence 2) [5E82C764] (AR v1)
Track 5 accurately ripped (confidence 2) [C65A9079] (AR v1)
Track 6 accurately ripped (confidence 2) [1280D08E] (AR v1)
Track 7 accurately ripped (confidence 2) [C9417D3D] (AR v1)
Track 8 accurately ripped (confidence 2) [49CD9BC3] (AR v1)
All tracks accurately ripped
End of status report
---- CUETools DB Plugin V2.1.3
[CTDB TOCID: DDvR7LThO3wWGcRdtSg_l83RYzA-] disk not present in database, Submit result: unrecognized or virtual drive
==== Log checksum F493C937A4065F57E32E377EAB8CCEAFA1366CAEB2384FBA8E48D3197B108359 ====

CD2

Exact Audio Copy V1.0 beta 3 from 29. August 2011
EAC extraction logfile from 31. January 2015, 1:22
Bartók / Bluebirds Castle, Sebastian CD2
Used drive : TSSTcorpCDDVDW SE-208AB Adapter: 1 ID: 0
Read mode : Secure
Utilize accurate stream : Yes
Defeat audio cache : Yes
Make use of C2 pointers : No
Read offset correction : 6
Overread into Lead-In and Lead-Out : No
Fill up missing offset samples with silence : Yes
Delete leading and trailing silent blocks : No
Null samples used in CRC calculations : Yes
Used interface : Native Win32 interface for Win NT & 2000
Used output format : Monkey's Audio Lossless Encoder
Selected bitrate : High Lossless Compression
Quality : High
Add ID3 tag : Yes
Command line compressor : C:\Program Files (x86)\Exact Audio Copy\MAC\MAC.exe
TOC of the extracted CD
Track | Start | Length | Start sector | End sector
---------------------------------------------------------
1 | 0:00.00 | 15:31.38 | 0 | 69862
2 | 15:31.38 | 5:11.66 | 69863 | 93253
3 | 20:43.29 | 6:53.52 | 93254 | 124280
4 | 27:37.06 | 4:13.04 | 124281 | 143259
5 | 31:50.10 | 6:47.70 | 143260 | 173854
6 | 38:38.05 | 4:26.26 | 173855 | 193830
7 | 43:04.31 | 5:27.56 | 193831 | 218411
8 | 48:32.12 | 6:18.04 | 218412 | 246765
Range status and errors
Selected range
Filename D:\EAC\Bartók - Bluebirds Castle, Sebastian CD2.wav
Peak level 100.0 %
Extraction speed 2.0 X
Range quality 100.0 %
Test CRC F94E1169
Copy CRC F94E1169
Copy OK
No errors occurred
AccurateRip summary
Track 1 accurately ripped (confidence 2) [CADFA53C] (AR v1)
Track 2 accurately ripped (confidence 2) [313470E4] (AR v1)
Track 3 accurately ripped (confidence 2) [8F926748] (AR v1)
Track 4 accurately ripped (confidence 2) [51D02666] (AR v1)
Track 5 accurately ripped (confidence 2) [B6D1D9FE] (AR v1)
Track 6 accurately ripped (confidence 2) [03E8D231] (AR v1)
Track 7 accurately ripped (confidence 2) [C1E12B5A] (AR v1)
Track 8 accurately ripped (confidence 2) [A41FAFA0] (AR v1)
All tracks accurately ripped
End of status report
---- CUETools DB Plugin V2.1.3
[CTDB TOCID: ogqSTzm8_bFdak04ZTdargSGoB8-] found, Submit result: ogqSTzm8_bFdak04ZTdargSGoB8- has been confirmed
[a7c5fd8b] (3/3) Accurately ripped
==== Log checksum B6B946EEFBA249C4BBAB304F8EB7CAD8D1020EE3BEB6C895A2027FB03C673CD8 ====

Содержание индексной карты (.CUE)

CD1

REM GENRE Opera
REM DATE 1950
REM DISCID 5D0C4E08
REM COMMENT "ExactAudioCopy v1.0b3"
PERFORMER "Bartók"
TITLE "Le Chateau de Barbe Bleue, Ansermet CD1"
FILE "Bartók - Le Chateau de Barbe Bleue, Ansermet CD1.ape" WAVE
TRACK 01 AUDIO
TITLE "Ouverture & Entree de Barbe Bleue"
PERFORMER "Bartók"
ISRC 000000000000
INDEX 01 00:00:00
TRACK 02 AUDIO
TITLE "La chambre de torture"
PERFORMER "Bartók"
ISRC 000000000000
INDEX 01 12:50:71
TRACK 03 AUDIO
TITLE "Lármurerie"
PERFORMER "Bartók"
ISRC 000000000000
INDEX 01 16:50:10
TRACK 04 AUDIO
TITLE "Le tresor"
PERFORMER "Bartók"
ISRC 000000000000
INDEX 01 20:30:07
TRACK 05 AUDIO
TITLE "Le jardin secret"
PERFORMER "Bartók"
ISRC 000000000000
INDEX 01 22:39:10
TRACK 06 AUDIO
TITLE "Lr royaume de Barbe Bleue"
PERFORMER "Bartók"
ISRC 000000000000
INDEX 01 27:07:18
TRACK 07 AUDIO
TITLE "Les larmes"
PERFORMER "Bartók"
ISRC 000000000000
INDEX 01 32:50:09
TRACK 08 AUDIO
TITLE "Les femmes de Barbe Bleue"
PERFORMER "Bartók"
ISRC 000000000000
INDEX 01 44:10:08

CD2

REM GENRE Opera
REM DATE 1951
REM DISCID 6B0CDA08
REM COMMENT "ExactAudioCopy v1.0b3"
PERFORMER "Bartók"
TITLE "Bluebirds Castle, Sebastian CD2"
FILE "Bartók - Bluebirds Castle, Sebastian CD2.ape" WAVE
TRACK 01 AUDIO
TITLE "Introduction & Megerkeztunk"
PERFORMER "Bartók"
ISRC 000000000000
INDEX 01 00:00:00
TRACK 02 AUDIO
TITLE "Nesd Esak"
PERFORMER "Bartók"
ISRC 000000000000
INDEX 01 15:31:38
TRACK 03 AUDIO
TITLE "Adok Neked"
PERFORMER "Bartók"
ISRC 000000000000
INDEX 01 20:43:29
TRACK 04 AUDIO
TITLE "Nezd Hogy Denul"
PERFORMER "Bartók"
ISRC 000000000000
INDEX 01 27:37:06
TRACK 05 AUDIO
TITLE "Gyere. Gyere Ted "
PERFORMER "Bartók"
ISRC 000000000000
INDEX 01 31:50:10
TRACK 06 AUDIO
TITLE "Az Utolsol"
PERFORMER "Bartók"
ISRC 000000000000
INDEX 01 38:38:05
TRACK 07 AUDIO
TITLE "Tudom, Tudom"
PERFORMER "Bartók"
ISRC 000000000000
INDEX 01 43:04:31
TRACK 08 AUDIO
TITLE "Hajnalban Az"
PERFORMER "Bartók"
ISRC 000000000000
INDEX 01 48:32:12
Доп. информация:
Synopsis
Time and Place
Medieval times. Bluebeard's Castle
Young Judith leaves her family and her betrothed and flees with Bluebeard to his castle.
When they enter the castle, Judith plans to make improvements on the dark and generally dreary home the lovers will share.
Bluebeard instructs her not to open any of the seven doors in the castle, but she is insistent.
The first door reveals Bluebeard’s torture chamber, where the walls drip with fresh blood.
This doesn’t deter Judith: she is both inquisitive and, perhaps, a bit insecure, ultimately prodding Bluebeard into handing over the keys to all seven doors so that she might know him better.
Against Bluebeard’s wishes she continues to open doors, ultimately revealing various aspects of Bluebeard’s past.
At the seventh door, Bluebeard’s three former wives step out into the hall.
They are the Duke’s morning, noon, and evening wives, and Judith is now his midnight wife.
He weighs her down with jewels, a crown, and a cloak, and she follows a moonbeam into the seventh chamber, the door closing behind her.
Bluebeard is left alone in darkness.
Repertoire Note
Often now well paired with Schoenberg’s Erwartung or Stravinsky’s Oedipus Rex ( http://teatrix.ru/viewtopic.php?t=4929735 ), Bartók’s opera was originally performed as a companion work to his ballet, The Wooden Prince ( http://teatrix.ru/viewtopic.php?t=4906235 ).
His librettist, Béla Balázs, wanted “to depict a modern soul in the primary colours of folksong”.
The partnership worked better here, dramatically and musically, than in their balletic collaboration a few years later.
As the opera lasts for under one hour, involves only two singing voices, and is a psychological drama, concert performances are also highly effective.



Показать сообщения:    

Текущее время: 04-Дек 17:18

Часовой пояс: UTC + 3


Вы не можете начинать темы
Вы не можете отвечать на сообщения
Вы не можете редактировать свои сообщения
Вы не можете удалять свои сообщения
Вы не можете голосовать в опросах
Вы не можете прикреплять файлы к сообщениям
Вы не можете скачивать файлы