[TR24][SM][OF] Anton Bruckner - Symphony No. 4 - Bernard Haitink & London Symphony Orchestra - 2011 (Classical)


Статистика раздачи [Обновить пиров]
Размер:  645 MB   |    Зарегистрирован:  8 месяцев 17 дней   |    Скачан:  0 раз

Полного источника не было: Никогда

 
   
 
 
 

[Цитировать]

·
Anton Bruckner (1824 – 1896)Жанр: Symphony
Носитель: Official Digital Download
Год издания диска: 2011
Издатель(лейбл): LSO Live
Номер по каталогу: LSO0716
Продолжительность: 01:09:08
Наличие сканов в содержимом раздачи: booklet, inlay, sleeve
Контейнер: FLAC (*.flac)
Разрядность: 24/48
Количество каналов: 2.0
Формат: tracks
Источник: bowers-wilkins.com
Pелизер: WEB (thanks to the original customer)
Bernard Haitink
London Symphony Orchestra
http://www.bowers-wilkins.com/Society_of_Sound/Society_of_Sound/Music/bernard-hai...mphony-no-4.html

Треклист

Symphony No. 4 in E flat major 'Romantic' (1874-80)
1886 (aka 1878/80) version - ed. Leopold Nowak [1953]
01 Beweft, nicht zu schnell 20:33
02 Andante quasi Allegretto 15:07
03 Scherzo. Bewegt - Trio: Nicht zu schnell. Keinesfalls schleppend 11:11
04 Finale: Bewegt, doch nicht zu schnell 22:17

Dynamic Range Meter

foobar2000 1.2.6 / Dynamic Range Meter 1.1.1
log date: 2015-03-08 23:45:44
--------------------------------------------------------------------------------
Analyzed: London Symphony Orchestra, Bernard Haitink / Bruckner: Symphony No. 4 in E flat major 'Romantic'
--------------------------------------------------------------------------------
DR Peak RMS Duration Track
--------------------------------------------------------------------------------
DR15 0.00 dB -21.14 dB 20:33 01-I. Bewegt, nicht zu schnell
DR15 -3.76 dB -26.28 dB 15:07 02-II. Andante quasi Allegretto
DR13 -2.29 dB -23.23 dB 11:12 03-III. Scherzo: Bewegt – Trio: Nicht zu schnell, keinesfalls schleppend
DR15 0.00 dB -21.22 dB 22:19 04-IV. Finale: Bewegt, doch nicht zu schnell
--------------------------------------------------------------------------------
Number of tracks: 4
Official DR value: DR14
Samplerate: 48000 Hz
Channels: 2
Bits per sample: 24
Bitrate: 1323 kbps
Codec: FLAC
================================================================================
[teatrix.ru].t20554.torrent 
Торрент: Зарегистрирован [ 2016-03-20 00:05 ] · B033600BEBAB64F33F164CEF5C61905F649269F5

Скачать .torrent

Скачать

14 KB

Статус: проверено
Скачан: 0 раз
Размер: 645 MB
terms.php



Быстрый ответ

Имя:

      
Для отправки сообщений необходимо включить JavaScript
Показать сообщения:    

Текущее время: 06-Дек 17:06

Часовой пояс: UTC + 3


Вы можете начинать темы
Вы можете отвечать на сообщения
Вы не можете редактировать свои сообщения
Вы не можете удалять свои сообщения
Вы не можете голосовать в опросах
Вы не можете прикреплять файлы к сообщениям
Вы можете скачивать файлы