(Classical) Cansos de Trobairitz 1200 (Montserrat Figueras, Jordi Savall) - 1990, FLAC (image+.cue) lossless


 

[Цитировать]

Cansos de Trobairitz 1200 (Montserrat Figueras, Jordi Savall)
Жанр: Classical
Страна-производитель диска: Germany
Год издания диска: 1990
Издатель (лейбл): EMI
Номер по каталогу: CDM 7 63417 2
Дата записи: 1977
Аудиокодек: FLAC
Тип рипа: image+.cue
Битрейт аудио: lossless
Продолжительность: 50:06
Источник: собственный рип
сайт-источник/ник/другое: Из личной коллекции
Наличие сканов в содержимом раздачи: да
Треклист:
1. Vos que.m semblatz dels corals amadors (2 voices, 2 flutes, percussion)
Words by Condessa de Provenza Gardensa (c.1193-c.1215) & Gui de Cavaillon (fl.c.1210)
Music by Gaucelm Faidit (c.1150-c.1220)
2. Estat ai eu greu cossirier (voice, vielle, lyre)
Words by Condessa de Dia (fl.c.1200)
Music by Raimon de Miraval (c.1180-1215)
3. Na Carenza al bel cors avinen (2 voices, lute)
Words by anon
Music by Arnault de Maruelh (c.1170-1200)
4. Si.us quer conselh, bel' ami' Alamanda (2 voices, vielle, lute, lyre, guitar)
Words & Music by Giraut de Bornelh (c.1140-c.1200)
----
5. Ab joi et ab joven m'apais (voice, flute, vielle, guitar, rebab, percussion)
Words by Condessa de Dia
Music by Bernart de Ventadorn (c.1135-c.1195)
6. A chantar m'er de so q'ieu no voldria (voice, lyre)
Words & Music by Condessa de Dia
7. S'anc fui belha ni prezada (2 voices, flute, lute, guitar, vielle, lyre)
Words & Music by Cadenet (fl.c.1220)
Исполнители:
Montserrat Figueras (voice), Josep Benet (voice), Pilar Figueras (voice), Jordi Savall (vielle & lyre), Hopkinson Smith (lute & guitar), Lorenzo Alpert (flute), Gabriel Garrido (flute & percussion), Christophe Coin (vielle & rebab)

Лог создания рипа

Exact Audio Copy V1.0 beta 3 from 29. August 2011
EAC extraction logfile from 5. February 2015, 20:45
_Thématique / Cansos de Trobairitz ( Femmes Troubadours) vers 1200
Used drive : HL-DT-STDVDRAM GSA-T40N Adapter: 0 ID: 0
Read mode : Secure
Utilize accurate stream : Yes
Defeat audio cache : Yes
Make use of C2 pointers : No
Read offset correction : 667
Overread into Lead-In and Lead-Out : No
Fill up missing offset samples with silence : Yes
Delete leading and trailing silent blocks : No
Null samples used in CRC calculations : Yes
Used interface : Native Win32 interface for Win NT & 2000
Used output format : User Defined Encoder
Selected bitrate : 32 kBit/s
Quality : High
Add ID3 tag : No
Command line compressor : C:\Program Files\Exact Audio Copy\Flac\flac.exe
Additional command line options : -V -8 -T "Date=%year%" -T "Genre=%genre%" %source%
TOC of the extracted CD
Track | Start | Length | Start sector | End sector
---------------------------------------------------------
1 | 0:00.00 | 3:56.50 | 0 | 17749
2 | 3:56.50 | 6:10.42 | 17750 | 45541
3 | 10:07.17 | 5:54.58 | 45542 | 72149
4 | 16:02.00 | 9:46.27 | 72150 | 116126
5 | 25:48.27 | 5:31.03 | 116127 | 140954
6 | 31:19.30 | 8:22.37 | 140955 | 178641
7 | 39:41.67 | 10:24.25 | 178642 | 225466
Range status and errors
Selected range
Filename D:\Rip\Jordi_Savall-Cansos_de_Trobairitz_1200-1977(EMI)\_Thématique - Cansos de Trobairitz ( Femmes Troubadours) vers 1200.wav
Peak level 90.4 %
Extraction speed 3.2 X
Range quality 100.0 %
Test CRC 40F929CC
Copy CRC 40F929CC
Copy OK
No errors occurred
AccurateRip summary
Track 1 accurately ripped (confidence 3) [3F64271A] (AR v2)
Track 2 accurately ripped (confidence 3) [39CDF483] (AR v2)
Track 3 accurately ripped (confidence 3) [89C16D3A] (AR v2)
Track 4 accurately ripped (confidence 2) [DBB0E9BB] (AR v2)
Track 5 accurately ripped (confidence 2) [74114305] (AR v2)
Track 6 accurately ripped (confidence 2) [91FE1744] (AR v2)
Track 7 accurately ripped (confidence 2) [43EF0C4A] (AR v2)
All tracks accurately ripped
End of status report
==== Log checksum 8211547528513C2393A1FCE55E09CB1424341492CB37A00F8304DE993B324541 ====

Содержание индексной карты (.CUE)

REM GENRE Vocal
REM DATE 1990
REM DISCID 5E0BBE07
REM COMMENT "ExactAudioCopy v1.0b3"
PERFORMER "_Thematique"
TITLE "Cansos de Trobairitz ( Femmes Troubadours) vers 1200"
FILE "Thmatique - Cansos de Trobairitz ( Femmes Troubadours) vers 1200.flac" WAVE
TRACK 01 AUDIO
TITLE "Vos que.m semblatz dels corals amadors"
PERFORMER "Gui de Cavaillon (1er Q XIIIe)"
INDEX 01 00:00:00
TRACK 02 AUDIO
TITLE "Estat ai en greu cossirier"
PERFORMER "Raimon de Miraval (f1180-1215)"
INDEX 00 03:52:40
INDEX 01 03:56:50
TRACK 03 AUDIO
TITLE "Na Carenza al bel cors avinen"
PERFORMER "Arnault de Maruelh (f1170-1200)"
INDEX 00 10:03:47
INDEX 01 10:07:17
TRACK 04 AUDIO
TITLE "Si.us quer conselh, bel' ami' Alamanda"
PERFORMER "Giraut de Bornelh (c1140-c1200)"
INDEX 00 15:57:72
INDEX 01 16:02:00
TRACK 05 AUDIO
TITLE "Ab joi et ab joven m'apais"
PERFORMER "Bernart de Ventadorn (c1130-c1200)"
INDEX 00 25:43:55
INDEX 01 25:48:27
TRACK 06 AUDIO
TITLE "A chantar m'er de so q'ieu no voldria"
PERFORMER "Condesa de Dia (c1200)"
INDEX 00 31:14:22
INDEX 01 31:19:30
TRACK 07 AUDIO
TITLE "S'anc fui belha ni prezada"
PERFORMER "Cadenet (1er T. XIIIe)"
INDEX 00 39:39:25
INDEX 01 39:41:67
Доп. информация: Recording site and date: Evangelische Kirch, Seon [June 1977];



Показать сообщения:    

Текущее время: 05-Дек 03:30

Часовой пояс: UTC + 3


Вы не можете начинать темы
Вы не можете отвечать на сообщения
Вы не можете редактировать свои сообщения
Вы не можете удалять свои сообщения
Вы не можете голосовать в опросах
Вы не можете прикреплять файлы к сообщениям
Вы не можете скачивать файлы