(Classical) El Canto de la Sibila II (Montserrat Figueras, Jordi Savall) - 2002, FLAC (image+.cue) lossless


Статистика раздачи [Обновить пиров]
Размер:  280 MB   |    Зарегистрирован:  8 месяцев 21 день   |    Скачан:  0 раз

Полного источника не было: Никогда

 
   
 
 
 

[Цитировать]

El Canto de la Sibila II (Montserrat Figueras, Jordi Savall)
Жанр: Classical
Страна-производитель диска: Austria
Год издания диска: 2002
Издатель (лейбл): Astree
Номер по каталогу: ES 9942
Дата записи: 1996
Аудиокодек: FLAC
Тип рипа: image+.cue
Битрейт аудио: lossless
Продолжительность: 71:12
Источник: собственный рип
сайт-источник/ник/другое: Из личной коллекции
Наличие сканов в содержимом раздачи: да
Треклист:

скрытый текст

Sibila Galaica
Alfonso el Sabio (attr.): Cantigas de Santa Maria
CSM 422: Madre de Deus
1. Madre de Deus
2. U verrá na carne
3. E u el a todos
4. E en aquel dia
5. U verás dos santos
6. U ao juyzio
7. U leixerám todos
8. U queimará fogo
9. U verás os angeos
10. U dirán as tronpas
11. U será o ayre
12. U verrá do çeo
13. U terrán escrito
14. E quando s'iguaren
15. Eu o sol craro
16. E du o mar grande
17. E u estrelas
18. E du o inferno
19. E u todo-los Reys
20. E u mostrar ele
21. Que pelos teus rogos
Sibila Castellana
Anon., Monastère de Silos, Cantoral de Cuenca, XVIème siècle
22. Tocata
23. Iudicii signum
24. Quantos aqui estades
25. Si oyésedes lo que dixo Sibila
26. El rey de los cielos verná
27. A Dios verán presente
28. Las ánimas venirán
29. Dexarán los ricos
30. Dios los infiernos quebrantará
Alonso de Cordoba, XVIème siècle (refrains)
31. Los pecadores seran dañados
32. Dios mostrará los pecados
33. Perderá el sol su resplandor
34. Los montes pues baxarán
Triana, XVIème siècle (refrains)
35. Montes ni campos no seran
36. Fuentes y ríos fuego arderán
37. La tierra se abrirá
38. Une reina se levantará
Cristóbal de Morales, XVIème siècle (refrains)
39. Pues vos los criastes
40. Esta es nuestra Señora
41. Puez será el juzgament
Исполнители:
[1]-[21] Montserrat Figueras (voice), Andrew Lawrence-King (harp)
La Capella Reial de la Catalunya:
Maite Arruabarrena (soprano), Alexandrina Polo (soprano), Sandra Roset (soprano), Marisa Vila (soprano), Carlos Mena (counter-tenor), Paolo Costa (counter-tenor), Josep M. Gregori (counter-tenor), Jean-Yves Guerry (counter-tenor), Lambert Climent (tenor), Francesc Garrigosa (tenor), Jordi Ricart (bass), Yves Bergé (bass), Daniele Carnovich (bass), Lorenz Duftschmid (violone), Pedro Estevan (bells)
Jordi Savall, dir.
[22]-[41] Montserrat Figueras (voice), Pedro Memelsdorff (recorder), Andrew Lawrence-King (harp)
La Capella Reial de la Catalunya:
Maite Arruabarrena (soprano), Alexandrina Polo (soprano), Sandra Roset (soprano), Marisa Vila (soprano), Carlos Mena (counter-tenor), Paolo Costa (counter-tenor), Josep M. Gregori (counter-tenor), Jean-Yves Guerry (counter-tenor), Lambert Climent (tenor), Francesc Garrigosa (tenor), Jordi Ricart (bass), Yves Bergé (bass), Daniele Carnovich (bass), Eunice Brandao (viola di gamba), Sergi Casademunt (viola di gamba), Sophie Watillon (viola di gamba), Lorenz Duftschmid (violone), Guy Ferber (trumpet), Roland Callmar (trumpet), Daniel Lassalle (sackbut), Thierry Durand (sackbut), Josep Borras (bombarde), Michael Beringer (organ), Pedro Estevan (percussion)
Jordi Savall, dir.

Лог создания рипа

Exact Audio Copy V1.0 beta 3 from 29. August 2011
EAC extraction logfile from 25. February 2015, 19:32
J. Savall - M. Figueras - La Capella Reial De Catalunya / El Canto De La Sibila II
Used drive : HL-DT-STDVDRAM GSA-T40N Adapter: 0 ID: 0
Read mode : Secure
Utilize accurate stream : Yes
Defeat audio cache : Yes
Make use of C2 pointers : No
Read offset correction : 667
Overread into Lead-In and Lead-Out : No
Fill up missing offset samples with silence : Yes
Delete leading and trailing silent blocks : No
Null samples used in CRC calculations : Yes
Used interface : Native Win32 interface for Win NT & 2000
Used output format : User Defined Encoder
Selected bitrate : 32 kBit/s
Quality : High
Add ID3 tag : No
Command line compressor : C:\Program Files\Exact Audio Copy\Flac\flac.exe
Additional command line options : -V -8 -T "Date=%year%" -T "Genre=%genre%" %source%
TOC of the extracted CD
Track | Start | Length | Start sector | End sector
---------------------------------------------------------
1 | 0:00.32 | 1:21.30 | 32 | 6136
2 | 1:21.62 | 1:31.38 | 6137 | 12999
3 | 2:53.25 | 1:26.45 | 13000 | 19494
4 | 4:19.70 | 1:40.05 | 19495 | 26999
5 | 6:00.00 | 1:36.30 | 27000 | 34229
6 | 7:36.30 | 1:31.40 | 34230 | 41094
7 | 9:07.70 | 1:31.57 | 41095 | 47976
8 | 10:39.52 | 1:40.53 | 47977 | 55529
9 | 12:20.30 | 1:38.52 | 55530 | 62931
10 | 13:59.07 | 1:35.45 | 62932 | 70101
11 | 15:34.52 | 1:34.63 | 70102 | 77214
12 | 17:09.40 | 1:33.47 | 77215 | 84236
13 | 18:43.12 | 1:38.45 | 84237 | 91631
14 | 20:21.57 | 1:41.25 | 91632 | 99231
15 | 22:03.07 | 1:37.48 | 99232 | 106554
16 | 23:40.55 | 1:30.27 | 106555 | 113331
17 | 25:11.07 | 1:31.25 | 113332 | 120181
18 | 26:42.32 | 1:45.55 | 120182 | 128111
19 | 28:28.12 | 1:25.55 | 128112 | 134541
20 | 29:53.67 | 2:10.73 | 134542 | 144364
21 | 32:04.65 | 2:28.72 | 144365 | 155536
22 | 34:33.62 | 1:21.30 | 155537 | 161641
23 | 35:55.17 | 0:55.00 | 161642 | 165766
24 | 36:50.17 | 1:22.30 | 165767 | 171946
25 | 38:12.47 | 1:31.58 | 171947 | 178829
26 | 39:44.30 | 1:30.45 | 178830 | 185624
27 | 41:15.00 | 1:28.72 | 185625 | 192296
28 | 42:43.72 | 1:41.28 | 192297 | 199899
29 | 44:25.25 | 1:53.55 | 199900 | 208429
30 | 46:19.05 | 1:31.12 | 208430 | 215266
31 | 47:50.17 | 2:00.03 | 215267 | 224269
32 | 49:50.20 | 2:12.32 | 224270 | 234201
33 | 52:02.52 | 1:57.18 | 234202 | 242994
34 | 53:59.70 | 1:41.37 | 242995 | 250606
35 | 55:41.32 | 2:06.10 | 250607 | 260066
36 | 57:47.42 | 2:18.68 | 260067 | 270484
37 | 60:06.35 | 2:14.37 | 270485 | 280571
38 | 62:20.72 | 1:34.38 | 280572 | 287659
39 | 63:55.35 | 1:34.72 | 287660 | 294781
40 | 65:30.32 | 1:47.55 | 294782 | 302861
41 | 67:18.12 | 3:50.10 | 302862 | 320121
Range status and errors
Selected range
Filename D:\Rip\Jordi_Savall-El_Canto_de_la_Sibila_II-1996(Astree,9942)\J. Savall - M. Figueras - La Capella Reial De Catalunya - El Canto De La Sibila II.wav
Peak level 91.2 %
Extraction speed 4.3 X
Range quality 100.0 %
Test CRC 38EFCD27
Copy CRC 38EFCD27
Copy OK
No errors occurred
AccurateRip summary
Track 1 accurately ripped (confidence 6) [5B53B852] (AR v2)
Track 2 accurately ripped (confidence 6) [07384D31] (AR v2)
Track 3 accurately ripped (confidence 6) [5C401117] (AR v2)
Track 4 accurately ripped (confidence 6) [3A10D988] (AR v2)
Track 5 accurately ripped (confidence 6) [46299B52] (AR v2)
Track 6 accurately ripped (confidence 6) [1BBA79B5] (AR v2)
Track 7 accurately ripped (confidence 6) [E2D5CE2A] (AR v2)
Track 8 accurately ripped (confidence 6) [19DFDB82] (AR v2)
Track 9 accurately ripped (confidence 6) [00C766D9] (AR v2)
Track 10 accurately ripped (confidence 6) [0AFE33C1] (AR v2)
Track 11 accurately ripped (confidence 6) [C878C8FB] (AR v2)
Track 12 accurately ripped (confidence 6) [DAD447E6] (AR v2)
Track 13 accurately ripped (confidence 6) [81D94159] (AR v2)
Track 14 accurately ripped (confidence 6) [5E5839D3] (AR v2)
Track 15 accurately ripped (confidence 6) [B8314480] (AR v2)
Track 16 accurately ripped (confidence 6) [B51BBB1F] (AR v2)
Track 17 accurately ripped (confidence 6) [4F294FCB] (AR v2)
Track 18 accurately ripped (confidence 6) [30916124] (AR v2)
Track 19 accurately ripped (confidence 6) [3BA0DD83] (AR v2)
Track 20 accurately ripped (confidence 6) [DC366670] (AR v2)
Track 21 accurately ripped (confidence 6) [D60C3F31] (AR v2)
Track 22 accurately ripped (confidence 6) [0EB0B5F3] (AR v2)
Track 23 accurately ripped (confidence 6) [C62FF5EA] (AR v2)
Track 24 accurately ripped (confidence 6) [1F5C493D] (AR v2)
Track 25 accurately ripped (confidence 6) [3ADCCD38] (AR v2)
Track 26 accurately ripped (confidence 6) [3454C701] (AR v2)
Track 27 accurately ripped (confidence 6) [8AD77F93] (AR v2)
Track 28 accurately ripped (confidence 6) [13B07D7C] (AR v2)
Track 29 accurately ripped (confidence 6) [D280821F] (AR v2)
Track 30 accurately ripped (confidence 6) [D83D32FA] (AR v2)
Track 31 accurately ripped (confidence 6) [DF441A9C] (AR v2)
Track 32 accurately ripped (confidence 6) [C66A06BF] (AR v2)
Track 33 accurately ripped (confidence 6) [6851A192] (AR v2)
Track 34 accurately ripped (confidence 6) [5F656169] (AR v2)
Track 35 accurately ripped (confidence 6) [96F4842F] (AR v2)
Track 36 accurately ripped (confidence 6) [9A25BCF8] (AR v2)
Track 37 accurately ripped (confidence 6) [A80921A1] (AR v2)
Track 38 accurately ripped (confidence 6) [747F9E93] (AR v2)
Track 39 accurately ripped (confidence 6) [9D19E2E2] (AR v2)
Track 40 accurately ripped (confidence 6) [23C9B7A1] (AR v2)
Track 41 accurately ripped (confidence 6) [5FA55234] (AR v2)
All tracks accurately ripped
End of status report
==== Log checksum 65479CF2A19A14657FFF3915F1F8678C1496757B8EB872A36FAC9B96BBDC4AA9 ====

Содержание индексной карты (.CUE)

REM GENRE Classical
REM DATE 1996
REM DISCID 3E10AC29
REM COMMENT "ExactAudioCopy v1.0b3"
PERFORMER "J. Savall - M. Figueras - La Capella Reial De Catalunya"
TITLE "El Canto De La Sibila II"
FILE "J. Savall - M. Figueras - La Capella Reial De Catalunya - El Canto De La Sibila II.flac" WAVE
TRACK 01 AUDIO
TITLE "Sibila Galaica - Madre De Deus"
PERFORMER "J. Savall - M. Figueras - La Capella Reial De Catalunya"
INDEX 00 00:00:00
INDEX 01 00:00:32
INDEX 02 00:44:07
TRACK 02 AUDIO
TITLE "Sibila Galaica - U Verra Na Carne"
PERFORMER "J. Savall - M. Figueras - La Capella Reial De Catalunya"
INDEX 01 01:21:62
INDEX 02 02:17:12
TRACK 03 AUDIO
TITLE "Sibila Galaica - E U El A Todos"
PERFORMER "J. Savall - M. Figueras - La Capella Reial De Catalunya"
INDEX 01 02:53:25
INDEX 02 03:40:07
TRACK 04 AUDIO
TITLE "Sibila Galaica - E En Aquel Dia"
PERFORMER "J. Savall - M. Figueras - La Capella Reial De Catalunya"
INDEX 01 04:19:70
INDEX 02 05:24:07
TRACK 05 AUDIO
TITLE "Sibila Galaica - U Veras Dos Santos"
PERFORMER "J. Savall - M. Figueras - La Capella Reial De Catalunya"
INDEX 01 06:00:00
INDEX 02 06:53:55
TRACK 06 AUDIO
TITLE "Sibila Galaica - U Au Juyzio"
PERFORMER "J. Savall - M. Figueras - La Capella Reial De Catalunya"
INDEX 01 07:36:30
INDEX 02 08:34:32
TRACK 07 AUDIO
TITLE "Sibila Galaica - U Leixaram Todos"
PERFORMER "J. Savall - M. Figueras - La Capella Reial De Catalunya"
INDEX 01 09:07:70
INDEX 02 10:02:57
TRACK 08 AUDIO
TITLE "Sibila Galaica - U Queimara Fogo"
PERFORMER "J. Savall - M. Figueras - La Capella Reial De Catalunya"
INDEX 01 10:39:52
INDEX 02 11:38:47
TRACK 09 AUDIO
TITLE "Sibila Galaica - U Veras Os Angeos"
PERFORMER "J. Savall - M. Figueras - La Capella Reial De Catalunya"
INDEX 01 12:20:30
INDEX 02 13:16:60
TRACK 10 AUDIO
TITLE "Sibila Galaica - U Diran As Tronpas"
PERFORMER "J. Savall - M. Figueras - La Capella Reial De Catalunya"
INDEX 01 13:59:07
INDEX 02 14:50:45
TRACK 11 AUDIO
TITLE "Sibila Galaica - U Sera O Ayre"
PERFORMER "J. Savall - M. Figueras - La Capella Reial De Catalunya"
INDEX 01 15:34:52
INDEX 02 16:28:02
TRACK 12 AUDIO
TITLE "Sibila Galaica - U Verra Do Ceo"
PERFORMER "J. Savall - M. Figueras - La Capella Reial De Catalunya"
INDEX 01 17:09:40
INDEX 02 18:05:15
TRACK 13 AUDIO
TITLE "Sibila Galaica - U Terran Escrito"
PERFORMER "J. Savall - M. Figueras - La Capella Reial De Catalunya"
INDEX 01 18:43:12
INDEX 02 19:40:07
TRACK 14 AUDIO
TITLE "Sibila Galaica - E Quando S'Iguaren"
PERFORMER "J. Savall - M. Figueras - La Capella Reial De Catalunya"
INDEX 01 20:21:57
INDEX 02 21:13:05
TRACK 15 AUDIO
TITLE "Sibila Galaica - Eu O Sol Craro"
PERFORMER "J. Savall - M. Figueras - La Capella Reial De Catalunya"
INDEX 01 22:03:07
INDEX 02 22:56:57
TRACK 16 AUDIO
TITLE "Sibila Galaica - E Du O Mar Grande"
PERFORMER "J. Savall - M. Figueras - La Capella Reial De Catalunya"
INDEX 01 23:40:55
INDEX 02 24:29:45
TRACK 17 AUDIO
TITLE "Sibila Galaica - E U Estrelas"
PERFORMER "J. Savall - M. Figueras - La Capella Reial De Catalunya"
INDEX 01 25:11:07
INDEX 02 25:54:70
TRACK 18 AUDIO
TITLE "Sibila Galaica - E Du O Inferno"
PERFORMER "J. Savall - M. Figueras - La Capella Reial De Catalunya"
INDEX 01 26:42:32
INDEX 02 27:44:67
TRACK 19 AUDIO
TITLE "Sibila Galaica - E U Todo-Los Reys"
PERFORMER "J. Savall - M. Figueras - La Capella Reial De Catalunya"
INDEX 01 28:28:12
INDEX 02 29:14:50
TRACK 20 AUDIO
TITLE "Sibila Galaica - E U Mostrar Ele"
PERFORMER "J. Savall - M. Figueras - La Capella Reial De Catalunya"
INDEX 01 29:53:67
INDEX 02 31:18:37
TRACK 21 AUDIO
TITLE "Sibila Galaica - Que Polos Teus Rogos"
PERFORMER "J. Savall - M. Figueras - La Capella Reial De Catalunya"
INDEX 01 32:04:65
INDEX 02 33:17:25
TRACK 22 AUDIO
TITLE "Sibila Castellana - Tocata"
PERFORMER "J. Savall - M. Figueras - La Capella Reial De Catalunya"
INDEX 00 34:18:05
INDEX 01 34:33:62
TRACK 23 AUDIO
TITLE "Sibila Castellana - Iudicii Signum"
PERFORMER "J. Savall - M. Figueras - La Capella Reial De Catalunya"
INDEX 01 35:55:17
INDEX 02 36:23:07
TRACK 24 AUDIO
TITLE "Sibila Castellana - Quantos Aqui Estades"
PERFORMER "J. Savall - M. Figueras - La Capella Reial De Catalunya"
INDEX 01 36:50:17
INDEX 02 37:39:62
TRACK 25 AUDIO
TITLE "Sibila Castellana - Si Oyesedes Lo Que Dixo Sibila"
PERFORMER "J. Savall - M. Figueras - La Capella Reial De Catalunya"
INDEX 01 38:12:47
INDEX 02 39:13:07
TRACK 26 AUDIO
TITLE "Sibila Castellana - El Rey De Los Cielos Verna"
PERFORMER "J. Savall - M. Figueras - La Capella Reial De Catalunya"
INDEX 01 39:44:30
INDEX 02 40:44:45
TRACK 27 AUDIO
TITLE "Sibila Castellana - A Dios Veran Presente"
PERFORMER "J. Savall - M. Figueras - La Capella Reial De Catalunya"
INDEX 01 41:15:00
INDEX 02 42:07:57
TRACK 28 AUDIO
TITLE "Sibila Castellana - Las Animas Veniran"
PERFORMER "J. Savall - M. Figueras - La Capella Reial De Catalunya"
INDEX 01 42:43:72
INDEX 02 43:46:07
TRACK 29 AUDIO
TITLE "Sibila Castellana - Dexaran Los Ricos"
PERFORMER "J. Savall - M. Figueras - La Capella Reial De Catalunya"
INDEX 01 44:25:25
INDEX 02 45:43:05
TRACK 30 AUDIO
TITLE "Sibila Castellana - Dios Los Infirnos, Quebrantara"
PERFORMER "J. Savall - M. Figueras - La Capella Reial De Catalunya"
INDEX 01 46:19:05
INDEX 02 47:19:30
TRACK 31 AUDIO
TITLE "Sibila Castellana - Los Pecadores Seran Danados"
PERFORMER "J. Savall - M. Figueras - La Capella Reial De Catalunya"
INDEX 01 47:50:17
INDEX 02 48:48:52
TRACK 32 AUDIO
TITLE "Sibila Castellana - Dios Mostrara Los Pecados"
PERFORMER "J. Savall - M. Figueras - La Capella Reial De Catalunya"
INDEX 01 49:50:20
INDEX 02 50:59:65
TRACK 33 AUDIO
TITLE "Sibila Castellana - Perdera El Sol Su Resplandor"
PERFORMER "J. Savall - M. Figueras - La Capella Reial De Catalunya"
INDEX 01 52:02:52
INDEX 02 52:59:70
TRACK 34 AUDIO
TITLE "Sibila Castellana - Los Montes Pues Baxaran"
PERFORMER "J. Savall - M. Figueras - La Capella Reial De Catalunya"
INDEX 01 53:59:70
INDEX 02 55:07:60
TRACK 35 AUDIO
TITLE "Sibila Castellana - Montes Ni Campos No Seran"
PERFORMER "J. Savall - M. Figueras - La Capella Reial De Catalunya"
INDEX 01 55:41:32
INDEX 02 56:35:70
TRACK 36 AUDIO
TITLE "Sibila Castellana - Fuentes Y Rios Fuego Arderan"
PERFORMER "J. Savall - M. Figueras - La Capella Reial De Catalunya"
INDEX 01 57:47:42
INDEX 02 58:51:65
TRACK 37 AUDIO
TITLE "Sibila Castellana - La Tierra Se Abrira"
PERFORMER "J. Savall - M. Figueras - La Capella Reial De Catalunya"
INDEX 01 60:06:35
INDEX 02 61:11:22
TRACK 38 AUDIO
TITLE "Sibila Castellana - Una Reina Se Levantara"
PERFORMER "J. Savall - M. Figueras - La Capella Reial De Catalunya"
INDEX 01 62:20:72
INDEX 02 63:21:37
TRACK 39 AUDIO
TITLE "Sibila Castellana - Pues Vos Los Criastes"
PERFORMER "J. Savall - M. Figueras - La Capella Reial De Catalunya"
INDEX 01 63:55:35
INDEX 02 64:50:50
TRACK 40 AUDIO
TITLE "Sibila Castellana - Esta Es Nuestra Senora"
PERFORMER "J. Savall - M. Figueras - La Capella Reial De Catalunya"
INDEX 01 65:30:32
INDEX 02 66:36:45
TRACK 41 AUDIO
TITLE "Sibila Castellana - Pues Sera El Juzgament"
PERFORMER "J. Savall - M. Figueras - La Capella Reial De Catalunya"
INDEX 01 67:18:12
INDEX 02 68:33:27
Доп. информация: Recording site and date: Colegiata del Castillo de Cardona (Cataluña) [1996]
[teatrix.ru].t20558.torrent 
Торрент: Зарегистрирован [ 2016-03-20 00:05 ] · 17AD4E1325C1DA63E2DC86BBC78EE039DFC627B3

Скачать .torrent

Скачать

12 KB

Статус: проверено
Скачан: 0 раз
Размер: 280 MB
terms.php



Быстрый ответ

Имя:

      
Для отправки сообщений необходимо включить JavaScript
Показать сообщения:    

Текущее время: 10-Дек 06:09

Часовой пояс: UTC + 3


Вы можете начинать темы
Вы можете отвечать на сообщения
Вы не можете редактировать свои сообщения
Вы не можете удалять свои сообщения
Вы не можете голосовать в опросах
Вы не можете прикреплять файлы к сообщениям
Вы можете скачивать файлы