(Classical) Vivaldi - Cello Concerti, Vol.1 (Raphael Wallfisch, Nicholas Kraemer) - 1995, FLAC (image+.cue) lossless


Статистика раздачи [Обновить пиров]
Размер:  271 MB   |    Зарегистрирован:  8 месяцев 16 дней   |    Скачан:  0 раз

Полного источника не было: Никогда

 
   
 
 
 

[Цитировать]

Vivaldi - Cello Concerti, Vol.1 (Raphael Wallfisch, Nicholas Kraemer)
Жанр: Classical
Страна-производитель диска: Germany
Год издания диска: 1995
Издатель (лейбл): Naxos
Номер по каталогу: 8.550907
Дата записи: 1994
Аудиокодек: FLAC
Тип рипа: image+.cue
Битрейт аудио: lossless
Продолжительность: 57:06
Источник: собственный рип
сайт-источник/ник/другое: Из личной коллекции
Наличие сканов в содержимом раздачи: да
Треклист:
Vivaldi, Antonio
Cello Concerto in F Major, RV 412
1. I. Allegro 00:02:53
2. II. Larghetto 00:02:46
3. III. Allegro 00:02:18
Cello Concerto in A Minor, RV 419
4. I. Allegro 00:04:17
5. II. Andante 00:02:37
6. III. Allegro 00:01:45
Cello Concerto in D Major, RV 404
7. I. Allegro 00:02:59
8. II. Affettuoso (Adagio) 00:00:56
9. III. Allegro vivace 00:02:58
Cello Concerto in C Major, RV 399
10. I. Allegro 00:02:01
11. II. Largo 00:02:03
12. III. Allegro 00:02:24
Cello Concerto in D Minor, RV 406
13. I. Allegro non molto 00:03:13
14. II. Andante 00:01:59
15. III. Minuetto 00:04:14
Cello Concerto in C Major, RV 398
16. I. Allegro 00:03:04
17. II. Largo 00:01:45
18. III. Allegro 00:02:21
Cello Concerto in F Major, RV 410
19. I. Allegro 00:03:39
20. II. Largo 00:03:31
21. III. Allegro 00:03:24
Total Playing Time: 00:57:07
Исполнители:
Raphael Wallfisch - cello
City of London Sinfonia, Nicholas Kraemer - conductor

Лог создания рипа

Exact Audio Copy V1.0 beta 3 from 29. August 2011
EAC extraction logfile from 20. February 2015, 20:22
Antonio Vivaldi / Cello Concerti. Vol. 1
Used drive : HL-DT-STDVDRAM GSA-T40N Adapter: 0 ID: 0
Read mode : Secure
Utilize accurate stream : Yes
Defeat audio cache : Yes
Make use of C2 pointers : No
Read offset correction : 667
Overread into Lead-In and Lead-Out : No
Fill up missing offset samples with silence : Yes
Delete leading and trailing silent blocks : No
Null samples used in CRC calculations : Yes
Used interface : Native Win32 interface for Win NT & 2000
Used output format : User Defined Encoder
Selected bitrate : 32 kBit/s
Quality : High
Add ID3 tag : No
Command line compressor : C:\Program Files\Exact Audio Copy\Flac\flac.exe
Additional command line options : -V -8 -T "Date=%year%" -T "Genre=%genre%" %source%
TOC of the extracted CD
Track | Start | Length | Start sector | End sector
---------------------------------------------------------
1 | 0:00.00 | 2:53.65 | 0 | 13039
2 | 2:53.65 | 2:45.40 | 13040 | 25454
3 | 5:39.30 | 2:17.67 | 25455 | 35796
4 | 7:57.22 | 4:16.55 | 35797 | 55051
5 | 12:14.02 | 2:37.05 | 55052 | 66831
6 | 14:51.07 | 1:45.65 | 66832 | 74771
7 | 16:36.72 | 2:58.40 | 74772 | 88161
8 | 19:35.37 | 0:56.10 | 88162 | 92371
9 | 20:31.47 | 2:57.55 | 92372 | 105701
10 | 23:29.27 | 2:01.20 | 105702 | 114796
11 | 25:30.47 | 2:02.55 | 114797 | 124001
12 | 27:33.27 | 2:23.60 | 124002 | 134786
13 | 29:57.12 | 3:13.60 | 134787 | 149321
14 | 33:10.72 | 1:58.23 | 149322 | 158194
15 | 35:09.20 | 4:14.17 | 158195 | 177261
16 | 39:23.37 | 3:03.43 | 177262 | 191029
17 | 42:27.05 | 1:45.00 | 191030 | 198904
18 | 44:12.05 | 2:20.70 | 198905 | 209474
19 | 46:33.00 | 3:39.52 | 209475 | 225951
20 | 50:12.52 | 3:30.73 | 225952 | 241774
21 | 53:43.50 | 3:23.40 | 241775 | 257039
Range status and errors
Selected range
Filename D:\Rip\Vivaldi.Cello_Concerti,Vol.1-Raphael_Wallfisch,Nicholas_Kraemer,1994(Naxos,8.550907)\Antonio Vivaldi - Cello Concerti. Vol. 1.wav
Peak level 95.5 %
Extraction speed 4.1 X
Range quality 100.0 %
Test CRC 05F4C554
Copy CRC 05F4C554
Copy OK
No errors occurred
AccurateRip summary
Track 1 accurately ripped (confidence 14) [8D5A16AA] (AR v2)
Track 2 accurately ripped (confidence 14) [7DA1772A] (AR v2)
Track 3 accurately ripped (confidence 14) [E1E53C04] (AR v2)
Track 4 accurately ripped (confidence 14) [A410E467] (AR v2)
Track 5 accurately ripped (confidence 14) [83F4B182] (AR v2)
Track 6 accurately ripped (confidence 14) [52B89397] (AR v2)
Track 7 accurately ripped (confidence 14) [61F3957D] (AR v2)
Track 8 accurately ripped (confidence 14) [0387A0CA] (AR v2)
Track 9 accurately ripped (confidence 13) [55F992A1] (AR v2)
Track 10 accurately ripped (confidence 14) [2C889013] (AR v2)
Track 11 accurately ripped (confidence 14) [6242E3F2] (AR v2)
Track 12 accurately ripped (confidence 14) [13342EDA] (AR v2)
Track 13 accurately ripped (confidence 14) [62093B6E] (AR v2)
Track 14 accurately ripped (confidence 14) [7351327C] (AR v2)
Track 15 accurately ripped (confidence 14) [CBB1427E] (AR v2)
Track 16 accurately ripped (confidence 14) [DAEFA66A] (AR v2)
Track 17 accurately ripped (confidence 14) [F2A07371] (AR v2)
Track 18 accurately ripped (confidence 14) [B0EC6BF9] (AR v2)
Track 19 accurately ripped (confidence 14) [BBDFCADD] (AR v2)
Track 20 accurately ripped (confidence 14) [91FC9083] (AR v2)
Track 21 accurately ripped (confidence 14) [18699ADD] (AR v2)
All tracks accurately ripped
End of status report
==== Log checksum 98219714297F20F9C85EBE85673A0DA5EEF65E7E7D41DD283CA27D52E94B5111 ====

Содержание индексной карты (.CUE)

REM GENRE Classical
REM DATE 1995
REM DISCID 3A0D6315
REM COMMENT "ExactAudioCopy v1.0b3"
PERFORMER "Antonio Vivaldi"
TITLE "Cello Concerti. Vol. 1"
FILE "Antonio Vivaldi - Cello Concerti. Vol. 1.flac" WAVE
TRACK 01 AUDIO
TITLE "Concerto in F Major, RV 412 - Allegro"
PERFORMER "Concerto in F major, RV 412"
INDEX 01 00:00:00
TRACK 02 AUDIO
TITLE "Concerto in F Major, RV 412 - larghetto"
PERFORMER "Concerto in F major, RV 412"
INDEX 01 02:53:65
TRACK 03 AUDIO
TITLE "Concerto in F Major, RV 412 - Allegro"
PERFORMER "Concerto in F major, RV 412"
INDEX 01 05:39:30
TRACK 04 AUDIO
TITLE "Concerto in A Minor, RV 419 - Allegro"
PERFORMER "Concerto in A Minor, RV 419"
INDEX 00 07:52:11
INDEX 01 07:57:22
TRACK 05 AUDIO
TITLE "Concerto in A Minor, RV 419 - Andante"
PERFORMER "Concerto in A Minor, RV 419"
INDEX 01 12:14:02
TRACK 06 AUDIO
TITLE "Concerto in A Minor, RV 419 - Allegro"
PERFORMER "Concerto in A Minor, RV 419"
INDEX 01 14:51:07
TRACK 07 AUDIO
TITLE "Concerto in D Major, RV 404 - Allegro"
PERFORMER "Concerto in D Major, RV 404"
INDEX 00 16:30:57
INDEX 01 16:36:72
TRACK 08 AUDIO
TITLE "Concerto in D Major, RV 404 - Affetuoso (adagio)"
PERFORMER "Concerto in D Major, RV 404"
INDEX 01 19:35:37
TRACK 09 AUDIO
TITLE "Concerto in D Major, RV 404 - Allegro vivace"
PERFORMER "Concerto in D Major, RV 404"
INDEX 01 20:31:47
TRACK 10 AUDIO
TITLE "Concerto in C Major, RV 399 - Allegro"
PERFORMER "Concerto in C Major, RV 399"
INDEX 00 23:24:39
INDEX 01 23:29:27
TRACK 11 AUDIO
TITLE "Concerto in C Major, RV 399 - Largo"
PERFORMER "Concerto in C Major, RV 399"
INDEX 01 25:30:47
TRACK 12 AUDIO
TITLE "Concerto in C Major, RV 399 - Allegro"
PERFORMER "Concerto in C Major, RV 399"
INDEX 01 27:33:27
TRACK 13 AUDIO
TITLE "Concerto in D Minor, RV 406 - Allegro non molto"
PERFORMER "Concerto in D Minor, RV 406"
INDEX 00 29:51:55
INDEX 01 29:57:12
TRACK 14 AUDIO
TITLE "Concerto in D Minor, RV 406 - Andante"
PERFORMER "Concerto in D Minor, RV 406"
INDEX 01 33:10:72
TRACK 15 AUDIO
TITLE "Concerto in D Minor, RV 406 - Minuetto"
PERFORMER "Concerto in D Minor, RV 406"
INDEX 01 35:09:20
TRACK 16 AUDIO
TITLE "Concerto in C Major, RV 398 - Allegro"
PERFORMER "Concerto in C Major, RV 398"
INDEX 00 39:16:48
INDEX 01 39:23:37
TRACK 17 AUDIO
TITLE "Concerto in C Major, RV 398 - Largo"
PERFORMER "Concerto in C Major, RV 398"
INDEX 01 42:27:05
TRACK 18 AUDIO
TITLE "Concerto in C Major, RV 398 - Allegro"
PERFORMER "Concerto in C Major, RV 398"
INDEX 01 44:12:05
TRACK 19 AUDIO
TITLE "Concerto in F Major, RV 410 - Allegro"
PERFORMER "Concerto in F Major, RV 410"
INDEX 00 46:28:42
INDEX 01 46:33:00
TRACK 20 AUDIO
TITLE "Concerto in F Major, RV 410 - Largo"
PERFORMER "Concerto in F Major, RV 410"
INDEX 01 50:12:52
TRACK 21 AUDIO
TITLE "Concerto in F Major, RV 410 - Allegro"
PERFORMER "Concerto in F Major, RV 410"
INDEX 01 53:43:50
Доп. информация:
Vol.1 - http://teatrix.ru/viewtopic.php?t=4957505
Vol.2 - http://teatrix.ru/viewtopic.php?t=4957513
Vol.3 - http://teatrix.ru/viewtopic.php?t=4957518
Vol.4 - http://teatrix.ru/viewtopic.php?t=4957526
[teatrix.ru].t20559.torrent 
Торрент: Зарегистрирован [ 2016-03-20 00:05 ] · E0213A18C85354CD2C8642BF78E6B0260E3EE7FF

Скачать .torrent

Скачать

12 KB

Статус: проверено
Скачан: 0 раз
Размер: 271 MB
terms.php



Быстрый ответ

Имя:

      
Для отправки сообщений необходимо включить JavaScript
Показать сообщения:    

Текущее время: 05-Дек 23:41

Часовой пояс: UTC + 3


Вы можете начинать темы
Вы можете отвечать на сообщения
Вы не можете редактировать свои сообщения
Вы не можете удалять свои сообщения
Вы не можете голосовать в опросах
Вы не можете прикреплять файлы к сообщениям
Вы можете скачивать файлы